Browse Collections Artists Sources   Search Dates

Add Show    List Management    Help


Grateful Dead 12/30/81
Oakland Auditorium Arena, Oakland, CA
Comments Add Comment    Source Collectors    Add to Collection    Add to Want List    History
Source # 96582 Other Sources
Entered by Steve Swartz
Checksums ffp , flac-md5
Disc Counts 2 / 3
Media Size
Date Circulated
Date Added
12/30/2008
12/29/2008
Source Summary flac16; Source: Audience Recording Lineage: Nak 700's - 3 mic mix (L & R Cardoids 6 db EQ, center Omni. 35' from stage) > Mixer > Sony TC-D5 > MAC (Maxell MX 90's) > Nakamichi ZX-7 > Tascam HD-P2 > 24/96 Wave > Adobe Audition > Wavelab with iZotope Ozone > iZotope RX Advanced > 16/44.1 Wave > CD Wave > TLH > flac16. 
  Archive
Source Information - Download Text | Download Zip
Grateful Dead
Oakland Auditorium
Oakland, CA
12/30/1981

Source: Audience Recording
Lineage: Nak 700's - 3 mic mix (L & R Cardoids 6 db EQ, center Omni. 35' from stage) > Mixer > Sony TC-D5 >
                  MAC (Maxell MX 90's) > Nakamichi ZX-7 > Tascam HD-P2 > 24/96 Wave > Adobe Audition >
                  Wavelab with iZotope Ozone > iZotope RX Advanced > 16/44.1 Wave > CD Wave > TLH > flac16.


Disc 1
set I

01   tuning
02   Jack Straw
03   They Love Each Other
04   On the Road Again
05   Dire Wolf >
06   Little Red Rooster
07   Cumberland Blues
08   It's All Over Now
09   Althea
10   crowd/tuning
11   Lazy Lightnin' >
12   Supplication
13   Might As Well


Disc 2
set II

01   // Wier introduces Joan Baez
02   Do Right Woman, Do Right Man *
03   Don't Blame My Mother *
04   The Boxer *
05   Happy New Year In Arabic **
06   Me And Bobby McGee ***
07   Lady Di ***
08   Barbara Allen ***


Disc 3
set II cont'd

01   tuning
02   Feel Like A Stranger ****
03   Ramble On Rose
04   Estimated Prophet >
05   Drums >
06   Space >
07   Not Fade Away >
08   Black Peter >
09   Johnny B. Goode

encore

10   Casey Jones


Notes:

- tape pauses between some tracks, and tape flips after Cumberland Blues and Barbara Allen have been crossfaded
- Drums patched 10:21 - 10:29  source: SBD > Cm > PCM > Dat > CD > Cool Edit Pro > CD > SHN > TLH > FLAC (shnid 8211)
- seamless change between discs 2 and 3

Comments:

* Joan Baez solo
** Joan Baez with Mickey Hart
*** Joan Baez with Grateful Dead
**** without Brent

- the mix changes just after the start of It's All Over Now

- another great recording.  Thanks to Mark for lending his masters to LMPP

Tapers Notes:

- Jaime built the mic mixer and we all taped from the free throw line on the floor at the Oakland Auditorium. The mic's
   went from the mixer into my Sony TC-D5M. There was also a patch bay, but I don't remember how many decks were
   plugged in. I went to 10 New Years runs / shows from 1977 to 1990 and the 1981 run was my favorite.


--------------------------------------------------------

- Taped by Mark Severson, he who wishes to remain anonymous, and Jamie Poris

- Transferred by BGreen

- Edited and Mastered by SIRMick

- First seeded to www.shnflac.net December 2008

- Presented To You By Live Music Preservation Project

- contact [email protected] with questions/concerns

   www.livemusicpreservationproject.com
-----------------------------------------------------------

Shntool output:

    length     expanded size    cdr  WAVE problems  fmt   ratio  filename
     1:26.45       15276284 B   ---   --   ---xx   flac  0.3692  gd1981-12-30d1t01.flac
     5:57.02       62979548 B   ---   --   ---xx   flac  0.4443  gd1981-12-30d1t02.flac
     7:04.46       74901836 B   ---   --   ---xx   flac  0.4536  gd1981-12-30d1t03.flac
     4:06.26       43455596 B   ---   --   ---xx   flac  0.4621  gd1981-12-30d1t04.flac
     3:11.58       33828860 B   ---   --   ---xx   flac  0.4788  gd1981-12-30d1t05.flac
     9:25.37       99753068 B   ---   --   ---xx   flac  0.4519  gd1981-12-30d1t06.flac
     6:05.26       64447196 B   ---   --   ---xx   flac  0.4619  gd1981-12-30d1t07.flac
     8:22.71       88719836 B   ---   --   ---xx   flac  0.5121  gd1981-12-30d1t08.flac
     7:40.23       81198140 B   ---   --   ---xx   flac  0.4949  gd1981-12-30d1t09.flac
     1:42.40       18086924 B   ---   --   ---xx   flac  0.3788  gd1981-12-30d1t10.flac
     3:28.09       36712412 B   ---   --   ---xx   flac  0.5114  gd1981-12-30d1t11.flac
     5:45.47       60968588 B   ---   --   ---xx   flac  0.5084  gd1981-12-30d1t12.flac
     4:27.21       47148236 B   ---   --   ---xx   flac  0.5381  gd1981-12-30d1t13.flac
     0:21.48        3817340 B   ---   --   ---xx   flac  0.5056  gd1981-12-30d2t01.flac
     3:32.46       37505036 B   ---   --   ---xx   flac  0.4633  gd1981-12-30d2t02.flac
     3:53.21       41150636 B   ---   --   ---xx   flac  0.4481  gd1981-12-30d2t03.flac
     3:56.58       41766860 B   ---   --   ---xx   flac  0.4730  gd1981-12-30d2t04.flac
     1:59.42       21090428 B   ---   --   ---xx   flac  0.4615  gd1981-12-30d2t05.flac
     4:39.32       49290908 B   ---   --   ---xx   flac  0.4847  gd1981-12-30d2t06.flac
     5:44.39       60773372 B   ---   --   ---xx   flac  0.4725  gd1981-12-30d2t07.flac
     5:32.63       58713020 B   ---   --   ---xx   flac  0.4823  gd1981-12-30d2t08.flac
     1:25.08       15012860 B   ---   --   ---xx   flac  0.4036  gd1981-12-30d3t01.flac
     9:13.74       97723292 B   ---   --   ---xx   flac  0.4890  gd1981-12-30d3t02.flac
     6:32.10       69172364 B   ---   --   ---xx   flac  0.4893  gd1981-12-30d3t03.flac
    13:44.52      145475948 B   ---   --   ---xx   flac  0.4900  gd1981-12-30d3t04.flac
    10:55.42      115640828 B   ---   --   ---xx   flac  0.4291  gd1981-12-30d3t05.flac
     3:56.46       41738636 B   ---   --   ---xx   flac  0.3867  gd1981-12-30d3t06.flac
     8:30.10       89987564 B   ---   --   ---xx   flac  0.4821  gd1981-12-30d3t07.flac
     9:32.33      100978460 B   ---   --   ---xx   flac  0.4422  gd1981-12-30d3t08.flac
     4:32.69       48143132 B   ---   --   ---xx   flac  0.5304  gd1981-12-30d3t09.flac
     5:01.62       53242268 B   ---   --   ---xx   flac  0.5138  gd1981-12-30d3t10.flac
   171:50.06     1818699476 B                            0.4730  (31 files)
Show Checksums
ffp
gd1981-12-30d1t01.flac:d26dd4b0818693ef4304ae3803ea5d0d
gd1981-12-30d1t02.flac:df3fa91cf3dcf7f4fd99bb5e12973ae9
gd1981-12-30d1t03.flac:9225c064be994497039cee94e80896bf
gd1981-12-30d1t04.flac:5029ce00f518830a0b978c2932aec33e
gd1981-12-30d1t05.flac:603423530b9f555569aff67f4275c166
gd1981-12-30d1t06.flac:fc6f341d906845815e36695253f93513
gd1981-12-30d1t07.flac:f0baf70af5e85afedea8fceba0778ee8
gd1981-12-30d1t08.flac:23a42767274ed62503a9949779593997
gd1981-12-30d1t09.flac:47602e4d15266523cf3fc7aa92a4ecd1
gd1981-12-30d1t10.flac:04010926fa11a8897572a406e3035e21
gd1981-12-30d1t11.flac:ffde9f0a2a3f171a556a0b7538087281
gd1981-12-30d1t12.flac:7aecd22fc9f25e9532030dfaa6e528d8
gd1981-12-30d1t13.flac:cbe606ad37135571a1be4faeb04a94c9
gd1981-12-30d2t01.flac:9e44e946eed2c79e14ef68710d0f712d
gd1981-12-30d2t02.flac:6dfc2924c264f1ce05ada0fb73c2a4b6
gd1981-12-30d2t03.flac:fd56a751c1f62ac7b2102f2b2c9867de
gd1981-12-30d2t04.flac:356bdc40505a4ac23f6b1e71a57d4f45
gd1981-12-30d2t05.flac:822c1df5b376d0d2daffd62640aca724
gd1981-12-30d2t06.flac:878741bb10735b1024b1b5104e0d6573
gd1981-12-30d2t07.flac:561919a2c3427629d777e3320ce2ba59
gd1981-12-30d2t08.flac:3830d37c1bc72f1a7c645e8b61f50c2b
gd1981-12-30d3t01.flac:1900f6371818dca1aa00203ac977e5b6
gd1981-12-30d3t02.flac:0640a95b022a64a76437b4e5cf7aaf5e
gd1981-12-30d3t03.flac:9fda85ae92d6e2b5ff74c9a9f8da8927
gd1981-12-30d3t04.flac:d688f6932eb1758d27652d82b0176c2f
gd1981-12-30d3t05.flac:423b708a3366cd5fd8365e9292c83a39
gd1981-12-30d3t06.flac:b6d76a270ecd15f2de797fa3d26048ae
gd1981-12-30d3t07.flac:5f9a81e343cce65794b2e78116cedd9f
gd1981-12-30d3t08.flac:5b43e024572f8078e4d82f954059bd8e
gd1981-12-30d3t09.flac:40fd7f755401028557bdbc25a54351dd
gd1981-12-30d3t10.flac:223778fe8faf232ecfa1f2efb147efa8
flac-md5
5e6eaa16dca48fd9b0714ebe000d9de0 *gd1981-12-30d1t01.flac
18907756cd14947934fdbdde8d98d387 *gd1981-12-30d1t02.flac
4fb93d7b516bef6b05759614c14cbc95 *gd1981-12-30d1t03.flac
0b50f84fb55fa2c6f3934c917979a3b5 *gd1981-12-30d1t04.flac
ec2281d3ea5f27f5df6718b3653b97ab *gd1981-12-30d1t05.flac
2a0dc3cf7ca350c5ec1370060c5b9c6b *gd1981-12-30d1t06.flac
7d6565ef70b0cc6dd4a291788f525043 *gd1981-12-30d1t07.flac
9e7b37193ea8cf6ce7072ee1df987894 *gd1981-12-30d1t08.flac
966de50695f759bafea744816def604f *gd1981-12-30d1t09.flac
7ad6dd7565ee7d9a2aa592dbabac8530 *gd1981-12-30d1t10.flac
9a8f6a3f8b1b646b6eca888b2530fce8 *gd1981-12-30d1t11.flac
506ffcca1f92feeb6b95040733b91ac7 *gd1981-12-30d1t12.flac
8dca48040fd6b2d401fcf9848ddccac4 *gd1981-12-30d1t13.flac
044adf5de78d336754332edb7926a4f2 *gd1981-12-30d2t01.flac
bb2afa992964311955e7d001c78fb85c *gd1981-12-30d2t02.flac
0b2f7b22fdd7ac456e07902bdbb8bb52 *gd1981-12-30d2t03.flac
2854a17b7719fa976345d2c6bf860951 *gd1981-12-30d2t04.flac
e50686bd875e40929c2b48cce9b6a8b5 *gd1981-12-30d2t05.flac
36667cd1ce33bf0c28634a10bc667398 *gd1981-12-30d2t06.flac
bafcd248470f79ae80f75b481e1e8cbd *gd1981-12-30d2t07.flac
2717b26fef1bd9cc983331d38faabcec *gd1981-12-30d2t08.flac
c26a1c20536ac334b8adeba4261451f0 *gd1981-12-30d3t01.flac
20af1a3a7a84b4b8e41109fec8aabf53 *gd1981-12-30d3t02.flac
5648570aae92574292fb7f7ad803ab35 *gd1981-12-30d3t03.flac
2ab467746b72bbda4fa605d6741eea93 *gd1981-12-30d3t04.flac
dda27c8446d4fecca4d7e0b992260060 *gd1981-12-30d3t05.flac
d1d4fdd23e6d39072499135877fc524e *gd1981-12-30d3t06.flac
8f5f1ec3cc3e43f9dc0fe6e404bf0f28 *gd1981-12-30d3t07.flac
7d06910aa5d4b3d32922f56e763a54c9 *gd1981-12-30d3t08.flac
b4b741adb261b802b9791f5c3f0bf55e *gd1981-12-30d3t09.flac
111af0a84f08c002284863c01cbd7a23 *gd1981-12-30d3t10.flac

Comments
Add Comment
Other Sources (comments)
1st Set SBD> MC> DAT> CD;... (0) flac16;... (0) flac16; Recording... (0) flac16; Set 1 + Set... (0)
Date User Comment