Browse Collections Artists Sources   Search Dates

Add Show    List Management    Help


Grateful Dead 05/04/80
Baltimore Civic Center, Baltimore, MD
Comments Add Comment    Source Collectors    Add to Collection    Add to Want List    History
Source # 96584 Other Sources
Entered by Steve Swartz
Checksums ffp , flac-md5
Disc Counts 2 / 3
Media Size
Date Circulated
Date Added
12/26/2008
12/29/2008
Source Summary flac16; MAC = 2 x Maxell XLII C90; 2 x Nakamichi CM700 => Sony TC-D5 >> MAC >> Nakamichi DR-1 => Grace Design Lunatec V3 >> Korg MR-1000 >> DSF [1-bit 5 -6448 MHz Stereo] >> Korg MR-1000 => Korg AudioGate >> WAV [24/96] Taped By: Barry Glassberg Transfer By: Adam Egert Mastering By: Derek McCabe MOTB0037. A fixed version now circulates 
  Archive
Source Information - Download Text | Download Zip
MOTB Release: 0037 16/44.1
Release Date: 2008-12-24
Band: Grateful Dead
Date: 1980-05-04 (Sunday)
Venue: Baltimore Civic Center
Location: Baltimore, MD
Analog Audience Source: FOB Master Cassettes (MAC)
Medium Stock Brands: MAC = 3 x Maxell XLII C90
Analog Lineage: 2 x Nakamichi CM700 => Sony TC-D5M >> MAC
Analog Sound Preservation: MAC >> Nakamichi DR-1 => Grace Design Lunatec V3 >> Korg MR-1000 >> DSF [1-bit 5.6448 MHz Stereo] >> Korg MR-1000 => Korg AudioGate >> WAV [24/96]
Taped By: Barry Glassberg
Transfer By: Adam Egert
Mastering By: Derek McCabe


Set1
d1t01 - Mississippi Half-Step >
d1t02 - Franklin's Tower >
d1t03 - Feel Like A Stranger
d1t04 - Billy for President Rap
d1t05 - Althea
d1t06 - El Paso
d1t07 - Easy To Love You
d1t08 - Brown Eyed Women
d1t09 - It's All Over Now
d1t10 - Don't Ease Me In
d1t11 - //Promised Land

Set 2
d2t01 - Scarlet Begonias >
d2t02 - Fire on the Mountain
d2t03 - Samson and Delila
d2t04 - Ship Of Fools
d3t01 - Playin' in the Band >
d3t02 - Drums >
d3t03 - Space >
d3t04 - Black Peter >
d3t05 - Sugar Magnolia

Encore
d3t06 - U.S. Blues

Notes:
Enjoy great show. WHat a pull!

shntool:
   length     expanded size    cdr  WAVE problems  fmt   ratio  filename
    10:33.04      111670652 B   ---   --   ---xx   flac  0.5865  gd1980-05-04.aud.glassberg.motb.0037.d1t01.flac
    10:11.67      107938028 B   ---   --   ---xx   flac  0.6201  gd1980-05-04.aud.glassberg.motb.0037.d1t02.flac
     9:17.37       98341868 B   ---   --   ---xx   flac  0.5851  gd1980-05-04.aud.glassberg.motb.0037.d1t03.flac
     2:16.50       24108044 B   ---   --   ---xx   flac  0.5258  gd1980-05-04.aud.glassberg.motb.0037.d1t04.flac
     9:03.41       95881676 B   ---   --   ---xx   flac  0.5552  gd1980-05-04.aud.glassberg.motb.0037.d1t05.flac
     6:21.50       67326044 B   ---   --   ---xx   flac  0.5606  gd1980-05-04.aud.glassberg.motb.0037.d1t06.flac
     5:08.08       54350060 B   ---   --   ---xx   flac  0.5648  gd1980-05-04.aud.glassberg.motb.0037.d1t07.flac
     5:23.52       57099548 B   ---   --   ---xx   flac  0.5941  gd1980-05-04.aud.glassberg.motb.0037.d1t08.flac
    11:40.19      123524732 B   ---   --   ---xx   flac  0.5891  gd1980-05-04.aud.glassberg.motb.0037.d1t09.flac
     3:22.19       35677532 B   ---   --   ---xx   flac  0.6132  gd1980-05-04.aud.glassberg.motb.0037.d1t10.flac
     4:40.19       49436732 B   ---   --   ---xx   flac  0.6287  gd1980-05-04.aud.glassberg.motb.0037.d1t11.flac
     8:01.27       84911948 B   ---   --   ---xx   flac  0.5996  gd1980-05-04.aud.glassberg.motb.0037.d2t01.flac
    10:12.50      108074444 B   ---   --   ---xx   flac  0.6200  gd1980-05-04.aud.glassberg.motb.0037.d2t02.flac
     9:58.63      105635420 B   ---   --   ---xx   flac  0.5978  gd1980-05-04.aud.glassberg.motb.0037.d2t03.flac
    10:04.30      106616204 B   ---   --   ---xx   flac  0.5348  gd1980-05-04.aud.glassberg.motb.0037.d2t04.flac
    16:00.05      169355804 B   ---   --   ---xx   flac  0.5635  gd1980-05-04.aud.glassberg.motb.0037.d3t01.flac
     8:18.45       87953084 B   ---   --   ---xx   flac  0.5197  gd1980-05-04.aud.glassberg.motb.0037.d3t02.flac
     2:16.36       24075116 B   ---   --   ---xx   flac  0.5202  gd1980-05-04.aud.glassberg.motb.0037.d3t03.flac
    10:12.71      108123836 B   ---   --   ---xx   flac  0.5532  gd1980-05-04.aud.glassberg.motb.0037.d3t04.flac
     8:50.73       93663740 B   ---   --   ---xx   flac  0.6352  gd1980-05-04.aud.glassberg.motb.0037.d3t05.flac
     5:45.29       60926252 B   ---   --   ---xx   flac  0.6175  gd1980-05-04.aud.glassberg.motb.0037.d3t06.flac
   167:40.45     1774690764 B                            0.5819  (21 files)
Show Checksums
ffp
gd1980-05-04.aud.glassberg.motb.0037.d1t01.flac:72a6b101da1a1bbe0cc9f100f3033947
gd1980-05-04.aud.glassberg.motb.0037.d1t02.flac:a01ff759889baf3c0f3841246020635f
gd1980-05-04.aud.glassberg.motb.0037.d1t03.flac:fe7401dc419757a2419ae553ad6f4d56
gd1980-05-04.aud.glassberg.motb.0037.d1t04.flac:d84dd32695bf29b3eb1e48a19264b93c
gd1980-05-04.aud.glassberg.motb.0037.d1t05.flac:fbef30b98f15938a573a61b5d73c3bb0
gd1980-05-04.aud.glassberg.motb.0037.d1t06.flac:282705dc576caa80d4e4884f91215983
gd1980-05-04.aud.glassberg.motb.0037.d1t07.flac:669b27f391b072b309566d695c692d58
gd1980-05-04.aud.glassberg.motb.0037.d1t08.flac:b1fff86ee8e8d1a8b0a3b4c52317bf47
gd1980-05-04.aud.glassberg.motb.0037.d1t09.flac:e22552967d890ec4caebf0327a53fdb0
gd1980-05-04.aud.glassberg.motb.0037.d1t10.flac:0e08dda7fc96ecc11f9d5a0c37dda90a
gd1980-05-04.aud.glassberg.motb.0037.d1t11.flac:9182003b3e39fb04e2f1a1b2d68f7d52
gd1980-05-04.aud.glassberg.motb.0037.d2t01.flac:870298c952e0511e4307a59c5cfc8ebc
gd1980-05-04.aud.glassberg.motb.0037.d2t02.flac:9a00322191d499c96394b7f26fc234aa
gd1980-05-04.aud.glassberg.motb.0037.d2t03.flac:f22bbc15186ed301710c2af054c5f7d7
gd1980-05-04.aud.glassberg.motb.0037.d2t04.flac:8830c8e21fa7bdb4e7e66c376479d3ac
gd1980-05-04.aud.glassberg.motb.0037.d3t01.flac:0031c889b72445731bf370f91f6af6ed
gd1980-05-04.aud.glassberg.motb.0037.d3t02.flac:fd778fa4221dda4ab8942b2f1e63c3b7
gd1980-05-04.aud.glassberg.motb.0037.d3t03.flac:2f40eca862e71cc207da737c97451390
gd1980-05-04.aud.glassberg.motb.0037.d3t04.flac:28001a97e92eb9e51f9877c057a90778
gd1980-05-04.aud.glassberg.motb.0037.d3t05.flac:8d7f6eedf1ef1a62a59a01f204131f96
gd1980-05-04.aud.glassberg.motb.0037.d3t06.flac:e14107a21e987e7890cbba0eee33f7a3
flac-md5
376e85d7e1874f049e94fcd3428f3b9a *gd1980-05-04.aud.glassberg.motb.0037.d1t01.flac
b9c913b9cdc8d744228782ab160cb238 *gd1980-05-04.aud.glassberg.motb.0037.d1t02.flac
0319750600c5d8d4ac8bfe5babfb8874 *gd1980-05-04.aud.glassberg.motb.0037.d1t03.flac
b058f8bf0250e8cdaaf9707cdb1ee6d5 *gd1980-05-04.aud.glassberg.motb.0037.d1t04.flac
041e7fe168cf21fef05e7b1dc03e2f97 *gd1980-05-04.aud.glassberg.motb.0037.d1t05.flac
9006e9627b8d2f9f7c4d4e1d3d2987b4 *gd1980-05-04.aud.glassberg.motb.0037.d1t06.flac
d006e157ef1a404ca11cbf2b96db7f91 *gd1980-05-04.aud.glassberg.motb.0037.d1t07.flac
46455627edf242567027cf26ce3fe101 *gd1980-05-04.aud.glassberg.motb.0037.d1t08.flac
587f73a7e274a957655db1363fbe66f3 *gd1980-05-04.aud.glassberg.motb.0037.d1t09.flac
2e9ab8b54c6fa740390f07de9b7e30e6 *gd1980-05-04.aud.glassberg.motb.0037.d1t10.flac
63cad7cbd73b277dea113eef1c657b82 *gd1980-05-04.aud.glassberg.motb.0037.d1t11.flac
c0c1fa8cab0c8ae48940d9290bc87a01 *gd1980-05-04.aud.glassberg.motb.0037.d2t01.flac
82685a1675b8c10da3ea3afb6b4ce592 *gd1980-05-04.aud.glassberg.motb.0037.d2t02.flac
3085a3984bd55764699ddd7ba11cbfaf *gd1980-05-04.aud.glassberg.motb.0037.d2t03.flac
509a1afc1df4862543682fc1e9a01b68 *gd1980-05-04.aud.glassberg.motb.0037.d2t04.flac
dd5bd6b5709d078f8dd6a98cf21a08a1 *gd1980-05-04.aud.glassberg.motb.0037.d3t01.flac
e01273f489600599db9b7186d471707f *gd1980-05-04.aud.glassberg.motb.0037.d3t02.flac
3692c1add1336635ac7040c1e0930601 *gd1980-05-04.aud.glassberg.motb.0037.d3t03.flac
46f2a5973b5f113d5cae48c1e5da2958 *gd1980-05-04.aud.glassberg.motb.0037.d3t04.flac
8e54db8714c0fcf5b38d3086c44cbe10 *gd1980-05-04.aud.glassberg.motb.0037.d3t05.flac
c26d2bbf42f93ca8f229fa314c3edf53 *gd1980-05-04.aud.glassberg.motb.0037.d3t06.flac

Comments
Add Comment
Other Sources (comments)
Nak 300's>MC>DAT>CD; via... (1) flac24; MAC = 2 x... (1) flac16; MAC = 2 x... (0) flac24; MAC = 2 x... (0) flac16; Recorded by... (0) flac16; Nakamichi... (0) flac24; Nakamichi... (0) flac24; 2 AKG-1000E>... (2) flac16; Recorded By... (0)
Date User Comment
01/22/2009 Slimus2006 There is a serious flaw in this version - d1t02 Franklin's Tower is actually Fire on the Mountain. Please download shnid 96910 instead