Browse Collections Artists Sources   Search Dates

Add Show    List Management    Help


Grateful Dead 10/11/89
Meadowlands Arena, East Rutherford, NJ
Comments Add Comment    Source Collectors    Add to Collection    Add to Want List    History
Source # 96599 Other Sources
Entered by dr.unclear
Checksums ffp , flac-md5
Disc Counts 2 / 3
Media Size
Date Circulated
Date Added
01/01/2009
12/30/2008
Source Summary flac16; matrix of SBD: shnid=83292 and AUD: shnid=89613 by hansokolow using ProTools  
  Archive
Source Information - Download Text | Download Zip
Grateful Dead
Wednesday, October 11th, 1989
Meadowlands Arena
East Rutherford, NJ

        cd1  -  set 1
1) (crowd/tuning)
2)  Let The Good Times Roll->
3)  Bertha->
4)  The Greatest Story Ever Told
5)  Loser
6)  When I Paint My Masterpiece
7)  Althea
8)  Cassidy
9)  Just A Little Light->
10)  Don't Ease Me In

        cd2  -  set 2
1)  China Cat Sunflower->
2)  I Know You Rider
3)  Estimated Prophet->
4)  Terrapin Station->
5)  Drums->

        cd3
1)  Space->
2)  The Wheel->
3)  All Along The Watchtower->
4)  Black Peter->
5)  Turn On Your Lovelight
6)    e:  It's All Over Now, Baby Blue

-----------------------------------

This is a matrix, done my hansokolow in ProTools, of these sources:

SBD: shnid=83292
SBD -> Cassette Master (TDK MA-XG90)

Transfer Info:
Cassette Master (Tascam 122mkII) -> Apogee MiniMe (24bit/48k) ->
Samplitude Professional v8.01 -> FLAC/16
(3 Discs Audio / 2 Discs FLAC)

All Transfers and Mastering By Charlie Miller
[email protected]
January 28, 2007

Patch Info:
(2) Nakamichi 300/CP4 + (2) Nakamichi 100/CP1 -> Cassette Master -> CD
Drums (4:36 - 4:54)

Notes:
-- Set 2 is seamless
-- Thanks to Paul Scotton and Joani Walker for the tapes
-- Patch source recorded By Steve Cherson

-----------------------------------

AUD: shnid= 89613
AUD: Sennheiser MD-421's > patched thru one D5 > Sony TC-D5M > Maxell
MX-90's, with no Dolby. Mics on 8-foot stand, front row of OTS.

Transfer: MAC > Nakamichi DR-8 (no Dolby) > Audiophile 2496 analog-in >
Soundforge > CD-Wave > TLH > FLAC. Taped and transferred by Andrew F.

Notes:
- Mic cable problems in the left channel; the right channel cross-faded
on top of the drop-outs, as follows:
- Crowd 0:28, 0:45, 0:49, Bertha 0:32, 0:57>1:02, 1:06>1:11, 1:24, 1:38>
1:54, 2:18, 2:33>2:36, Estimated 10:56, Terrapin 1:19>1:42, 14:44>14:52,
Drums 0:00>1:14, 3:08>3:39.
- Both channels drop-out at 0:50 of LTGTR, aprx 2 seconds missing.
- Soundforge used for fades, repair drop-outs, adjust levels.
- TLH used for SBE-OK, FLAC compression, and checksums.

-----------------------------------

My Notes: AUD source slowed down, song by song, to match the SBD source.

-Tano ([email protected])


length     expanded size    cdr  WAVE problems  fmt   ratio  filename
     3:18.55       35056604 B   ---   --   ---xx  gd89-10-11d1t01.flac
     3:53.11       41127116 B   ---   --   ---xx  gd89-10-11d1t02.flac
     6:55.72       73375388 B   ---   --   ---xx  gd89-10-11d1t03.flac
     5:43.69       60667532 B   ---   --   ---xx  gd89-10-11d1t04.flac
     8:57.42       94825628 B   ---   --   ---xx  gd89-10-11d1t05.flac
     7:36.31       80511356 B   ---   --   ---xx  gd89-10-11d1t06.flac
     9:12.15       97408124 B   ---   --   ---xx  gd89-10-11d1t07.flac
    10:32.41      111581276 B   ---   --   ---xx  gd89-10-11d1t08.flac
     5:29.38       58125020 B   ---   --   ---xx  gd89-10-11d1t09.flac
     3:35.17       37966028 B   ---   --   ---xx  gd89-10-11d1t10.flac
     9:03.10       95808764 B   ---   --   ---xx  gd89-10-11d2t01.flac
     7:41.11       81346316 B   ---   --   ---xx  gd89-10-11d2t02.flac
    11:12.73      118712540 B   ---   --   ---xx  gd89-10-11d2t03.flac
    15:02.38      159202220 B   ---   --   ---xx  gd89-10-11d2t04.flac
     9:59.71      105830636 B   ---   --   ---xx  gd89-10-11d2t05.flac
    10:25.13      110280620 B   ---   --   ---xx  gd89-10-11d3t01.flac
     6:42.35       70995164 B   ---   --   ---xx  gd89-10-11d3t02.flac
     6:34.26       69562796 B   ---   --   ---xx  gd89-10-11d3t03.flac
     9:31.14      100757372 B   ---   --   ---xx  gd89-10-11d3t04.flac
    10:15.10      108509564 B   ---   --   ---xx  gd89-10-11d3t05.flac
     7:41.65       81473324 B   ---   --   ---xx  gd89-10-11d3t06.flac
   169:25.07     1793123388 B                            0.5824  (21 files)
Show Checksums
ffp
gd89-10-11d1t01.flac:9b4e1801d6077727905730c542389c2e
gd89-10-11d1t02.flac:e2a7a3daeec0b30823300c752be9988e
gd89-10-11d1t03.flac:befb8e947fc6e0a03e05ed80356c1108
gd89-10-11d1t04.flac:666f25ce161217438251af5fe49f0225
gd89-10-11d1t05.flac:46b6158cfc069ed7c19343dff2516623
gd89-10-11d1t06.flac:ba11788b3adc77602a26620b126f4059
gd89-10-11d1t07.flac:fb967fdc9a0bf91e677beb894157d37f
gd89-10-11d1t08.flac:2fcd702aefa05917ccf3bd22fbd4d211
gd89-10-11d1t09.flac:dc3199bd3a024cd3e9b05b88628e6cbf
gd89-10-11d1t10.flac:9b57578860f4e1602741e4100157eefd
gd89-10-11d2t01.flac:4c4871a99bb58e255b739e61ea61825f
gd89-10-11d2t02.flac:abb4609bd2eb7e8221485a8bb2355c5c
gd89-10-11d2t03.flac:93346686d39d86e04c6f7d16496d8c2d
gd89-10-11d2t04.flac:5831bfdfb38fe4e264ce6bf4dd01e2e2
gd89-10-11d2t05.flac:78d2e611e4e8db23cbb2339bc146e4c1
gd89-10-11d3t01.flac:88f1663e503a1467629da55c4d6091b3
gd89-10-11d3t02.flac:7cdd8b370a946af3b67981548939ea51
gd89-10-11d3t03.flac:764c4ffcb7f40f309ef07c3fd0bbc904
gd89-10-11d3t04.flac:83ac6da65b4e0d952ee6489588e5fa2d
gd89-10-11d3t05.flac:0b6aafd397822b98faeec4ad10ff5de1
gd89-10-11d3t06.flac:13cf20c627144c743274a17642734138
flac-md5
741a0a2e3e6f9983500ceb0d4e1415a9 *gd89-10-11d1t01.flac
02bf3c8858b1f93b7156b3f6ad054d1f *gd89-10-11d1t02.flac
4c8b57ff5f1adf0a7dd1ea6370d2f6e1 *gd89-10-11d1t03.flac
dbed6347065c458fd5af1ad65301c742 *gd89-10-11d1t04.flac
e99d61390f44d01893cecf8f1a5ef0d5 *gd89-10-11d1t05.flac
1c35fe05f0e789b56cdcd54b31d35f14 *gd89-10-11d1t06.flac
6aaaa7f7217bb013ac31a13d68fb69b3 *gd89-10-11d1t07.flac
f48e3fdfeb98998383c95b93445e13cd *gd89-10-11d1t08.flac
d44332175092dd8f6efddcd17dd00fbd *gd89-10-11d1t09.flac
93af223de4ac444720ed07a2f7673541 *gd89-10-11d1t10.flac
892ab1c1b6b08c805154187f3626425b *gd89-10-11d2t01.flac
bffa9725e986466daa0847cc1cc3807b *gd89-10-11d2t02.flac
03619e3a5db2517616fe29f095104838 *gd89-10-11d2t03.flac
8930a25b4c5ba5793541f26e39952f35 *gd89-10-11d2t04.flac
5f1ccde2c0ac44c178ce38f6ebfb137d *gd89-10-11d2t05.flac
1e68ebb2a1a2469271b04c6f1677c184 *gd89-10-11d3t01.flac
207575359c6a594cd22d395bdb543aa1 *gd89-10-11d3t02.flac
c5805ddef5e823fbd0b8f962f66292aa *gd89-10-11d3t03.flac
31f156f6df30e53dc0480085772ad17c *gd89-10-11d3t04.flac
d0ef3b7ce595a71ed5641898c33be661 *gd89-10-11d3t05.flac
2d160e5348cf2d47308990801abfdbc2 *gd89-10-11d3t06.flac

Comments
Add Comment
Other Sources (comments)
Master Soundboard DAT >... (6) Sbd> Cas(m)> Dat> ZA2/PC>... (0) flac16; Recording... (0) flac16; AUD:... (0) flac16; Taper: M.... (0) flac24; Source:... (0) flac16/48kHz;... (0)
Date User Comment