Browse Collections Artists Sources   Search Dates

Add Show    List Management    Help


Jerry Garcia Band 11/09/91
Hampton Coliseum, Hampton, VA
Comments Add Comment    Source Collectors    Add to Collection    Add to Want List    History
Source # 96602 Other Sources
Entered by Joe Jupille
Checksums md5 , ffp
Disc Counts 2 / 2
Media Size
Date Circulated
Date Added
12/30/2008
12/30/2008
Source Summary JGB: Nakamichi 300 shotguns > Sony WM-D6 > 2 x Maxell XL II-S > Nakamichi BX-125E playback > EMU 0202 > Wavelab > wav (24/96) > Adobe Audition > Wavelab with iZotope Ozone > iZotope RX Advanced > wav 16/44.1 > CD Wave > TLH > flac16, via sirmick. 
Source Information - Download Text | Download Zip
Jerry Garcia Band
Hampton Coliseum,
Hampton, VA
11/09/1991

source: aud > Nakamichi 300 shotguns > Sony WM-D6 > 2 x Maxell XL II-S
transfer: mac > Nakamichi BX-125E > EMU 0202 > Wavelab > wav (24/96) >
Adobe Audition > Wavelab with iZotope Ozone > iZotope RX Advanced >
wav 16/44.1 > CD Wave > TLH > flac16


Disc 1
set I
01   tuning
02   How Sweet It Is (To Be Loved By You)
03   He Ain't Give You None
04   You Never Can Tell (C'est La Vie)
05   crowd
06   Run For The Roses
07   The Night They Drove Old Dixie Down
08   I Second That Emotion
09   My Sisters And Brothers
10   Ain't No Bread In The Breadbox

Disc 2
set II
01   Bright Side Of The Road
02   Shining Star
03   crowd/tuning
04   Waiting For A Miracle
05   band intros
06   Think
07   crowd/tuning
08   I Shall Be Released
09   Don't Let Go
10   Midnight Moonlight
11   crowd/tuning
encore
12   (What A) Wonderful World

Notes:
- tuning and first 3:08 of How Sweet It Is (To Be Loved By You) patched with Schoeps MK4's >
   Custom Oade Pre Amp > Panasonic SV-255 (shnid 85796)
- tape flips after The Night They Drove Old Dixie Down and I Shall Be Released crossfaded
- Disc 2 will require an overburn

Comments:
with Bruce Hornsby on electric piano
Thanks to John for lending me his masters
transferred, edited and mastered
SIRMick
December 2008

shntool output:

    length     expanded size    cdr  WAVE problems  fmt   ratio  filename
     0:17.63        3147020 B   ---   --   ---xx   flac  0.5226  jgb1991-11-09d1t01.flac
     7:32.64       79883372 B   ---   --   ---xx   flac  0.5806  jgb1991-11-09d1t02.flac
    10:14.05      108321404 B   ---   --   ---xx   flac  0.5383  jgb1991-11-09d1t03.flac
     8:32.24       90373292 B   ---   --   ---xx   flac  0.5443  jgb1991-11-09d1t04.flac
     1:53.72       20102588 B   ---   --   ---xx   flac  0.5078  jgb1991-11-09d1t05.flac
     5:49.23       61617740 B   ---   --   ---xx   flac  0.5393  jgb1991-11-09d1t06.flac
     9:49.52      104021948 B   ---   --   ---xx   flac  0.5334  jgb1991-11-09d1t07.flac
     9:28.74      100369292 B   ---   --   ---xx   flac  0.5360  jgb1991-11-09d1t08.flac
     4:32.15       48016124 B   ---   --   ---xx   flac  0.5201  jgb1991-11-09d1t09.flac
     9:04.30       96032204 B   ---   --   ---xx   flac  0.5410  jgb1991-11-09d1t10.flac
     7:31.57       79690508 B   ---   --   ---xx   flac  0.5203  jgb1991-11-09d2t01.flac
    13:22.72      141642188 B   ---   --   ---xx   flac  0.5273  jgb1991-11-09d2t02.flac
     1:31.28       16118300 B   ---   --   ---xx   flac  0.4954  jgb1991-11-09d2t03.flac
     6:30.25       68854844 B   ---   --   ---xx   flac  0.5392  jgb1991-11-09d2t04.flac
     0:49.08        8662460 B   ---   --   ---xx   flac  0.5385  jgb1991-11-09d2t05.flac
     8:54.00       94197644 B   ---   --   ---xx   flac  0.5597  jgb1991-11-09d2t06.flac
     1:23.51       14761196 B   ---   --   ---xx   flac  0.4956  jgb1991-11-09d2t07.flac
    10:03.36      106453916 B   ---   --   ---xx   flac  0.5118  jgb1991-11-09d2t08.flac
    15:43.54      166472252 B   ---   --   ---xx   flac  0.5197  jgb1991-11-09d2t09.flac
     6:27.10       68290364 B   ---   --   ---xx   flac  0.5436  jgb1991-11-09d2t10.flac
     1:05.74       11640092 B   ---   --   ---xx   flac  0.4940  jgb1991-11-09d2t11.flac
     7:42.40       81590924 B   ---   --   ---xx   flac  0.4989  jgb1991-11-09d2t12.flac
   148:21.52     1570259672 B                            0.5322  (22 files)
Show Checksums
md5
62bec507747018501d016901e04ff0bb *jgb1991-11-09d1t01.flac
54af5dd2cdae7668460bb4dc560db9e5 *jgb1991-11-09d1t02.flac
765f6ea5d0ae877ed90e8fa6f51ae183 *jgb1991-11-09d1t03.flac
ed201701514efcfcf6a4ae3776e2cd18 *jgb1991-11-09d1t04.flac
2acd09143f8fa0f1d1786db671ac3a60 *jgb1991-11-09d1t05.flac
9ee6c2c78afce9c1fc59e4ef0cb0505f *jgb1991-11-09d1t06.flac
d658e7450db285d59aff744f5fc109d6 *jgb1991-11-09d1t07.flac
9d77720607aa74b433ef2aee21cd601c *jgb1991-11-09d1t08.flac
04bb0ccc51b61fee7da9efd301630e5a *jgb1991-11-09d1t09.flac
1bf7ed1a628d315706bd2e790dee4e6b *jgb1991-11-09d1t10.flac
aacadea1a5a874056297d5c7a782cd31 *jgb1991-11-09d2t01.flac
58a9417fa95a640d6ba00338a6875877 *jgb1991-11-09d2t02.flac
410e7cc520e0c0715090a77c206c8b6f *jgb1991-11-09d2t03.flac
8a5a77f1af9729d0919787d21539fd66 *jgb1991-11-09d2t04.flac
1eb307c77acf5b2c161fe708bf26acbd *jgb1991-11-09d2t05.flac
5bd5f0c1069dbc4b2724ba90627e74a4 *jgb1991-11-09d2t06.flac
8234fb83e010e253e5b015e5864c06ee *jgb1991-11-09d2t07.flac
034aca30c2f1d908b04f76a28267fd2e *jgb1991-11-09d2t08.flac
502485f8e31387fcde67e0a9bd0957cf *jgb1991-11-09d2t09.flac
6cd7295c61cd232c7ea13aca2c23c77c *jgb1991-11-09d2t10.flac
3e7f0f6c5fc3e99a3d847223bb8495ed *jgb1991-11-09d2t11.flac
bc708b88010d1a8b3238dcaf79b7447e *jgb1991-11-09d2t12.flac
ffp
jgb1991-11-09d1t01.flac:012d38bf25d874a4a84b383e2aaebbac
jgb1991-11-09d1t02.flac:fa4bbca4e4d88e0be123fb30fd19dc1f
jgb1991-11-09d1t03.flac:5c37bedab1137f335cbf00b6c3a83807
jgb1991-11-09d1t04.flac:c0fbf1773cfae9f91a4265a1110ea4be
jgb1991-11-09d1t05.flac:3f8050c7e480508367242f5a76b74f3e
jgb1991-11-09d1t06.flac:cdf91dd168817c2b395ceb6b27ddd2ba
jgb1991-11-09d1t07.flac:a7eecc4c1af428c44f1a510a90a84d0e
jgb1991-11-09d1t08.flac:2f2f0df1bbf79e4b6ffd22a439b6cde2
jgb1991-11-09d1t09.flac:a8d9e0bfe1b640a022378ffca7f4ce3c
jgb1991-11-09d1t10.flac:156d021ee3e5dd25e8bc751af74cd8cb
jgb1991-11-09d2t01.flac:858701aeb1231ca2103b0931647aeecf
jgb1991-11-09d2t02.flac:f0ce8e458b76a7686d727b6e277665c1
jgb1991-11-09d2t03.flac:78cb12a2408047af850dbdfd718dfd51
jgb1991-11-09d2t04.flac:1faeb588bae149495c4c98cdc55b7722
jgb1991-11-09d2t05.flac:6482ab588d8d6454d7ab4217191b0f15
jgb1991-11-09d2t06.flac:e7110f52ffcd76b92ac9918bf73a3723
jgb1991-11-09d2t07.flac:3cbc4e80218db42da1aa0355eb963570
jgb1991-11-09d2t08.flac:80f6e9512379f751528bd869b6b05cc9
jgb1991-11-09d2t09.flac:b85437720b0148ee93fa168cfaed1dd9
jgb1991-11-09d2t10.flac:dbc1700caeddea75fc923472d1edd5c6
jgb1991-11-09d2t11.flac:62efa7cb836f4cba256dfcc08b3df4e4
jgb1991-11-09d2t12.flac:ecf2571c72694be973e7e14d2d4cec19

Comments
Add Comment
Other Sources (comments)
flac1644: Neumann USM69... (0)
Date User Comment