Browse Collections Artists Sources   Search Dates

Add Show    List Management    Help


Grateful Dead 07/15/89
Deer Creek Music Center, Noblesville, IN
Comments Add Comment    Source Collectors    Add to Collection    Add to Want List    History
Source # 96609 Other Sources
Entered by dr.unclear
Checksums ffp , flac-md5
Disc Counts 2 / 3
Media Size
Date Circulated
Date Added
12/31/2008
12/31/2008
Source Summary flac16; Source: Nak300 (4 mic mix; 2 shotgun, 2 cardioid) > Tandy 4 channel mixer > Sony TC-D5M (pass thru) > Yamaha MT1X (dbx type II encode, Maxell XL-IIS) Recorded by Eddie Wahba and Pat Volkerding Transfer: Yamaha MT120S (dbx type II decode) > Tascam DA-20 (A>D conversion) > coax/optical converter > Creative Nomad Jukebox 3 > Firewire > Amarok > CDWAV > FLAC 
  Archive
Source Information - Download Text | Download Zip
Grateful Dead
Deer Creek Music Center
Noblesville, IN
1989-07-15

Source: Nak300 (4 mic mix; 2 shotgun, 2 cardioid) > Tandy 4 channel mixer >
  Sony TC-D5M (pass thru) > Yamaha MT1X (dbx type II encode, Maxell XL-IIS)
  Recorded by Eddie Wahba and Pat Volkerding
Transfer:  Yamaha MT120S (dbx type II decode) > Tascam DA-20 (A>D conversion) >
  coax/optical converter > Creative Nomad Jukebox 3 > Firewire > Amarok >
  CDWAV > FLAC

Disc One:
1. Tuning
2. Bertha
3. Greatest Story Ever Told
4. Candyman
5. Walkin' Blues
6. Peggy-O
7. Queen Jane Approximately
8. We Can Run
9. Bird Song

CD 2/Set 2:
1. Tuning
2. Foolish Heart
3. Victim Or The Crime >
4. Crazy Fingers >
5. Truckin' >
6. Smokestack Lightning >
7. Drums >

CD 3:
1. Space * >
2. China Doll >
3. All Along the Watchtower >
4. Stella Blue >
5. Sugar Magnolia
6. Sunshine Daydream
   Encore:
7. Brokedown Palace

* "Close Encounters of the Third Kind" theme during Space

Known Flaws:
  Tape flip in the pre-drums jam, and again immediately before Stella Blue.
  4 mic mix has a bit of a phasing problem...
  Crackle during the first half of Greatest Story that sounds like a speaker
  blowing out, but is also present on the soundboard recording.

SHNTOOL OUTPUT:
    length     expanded size   cdr  WAVE problems filename
     2:26.01       25756796    ---   --   ---xx   gd89-07-15d1t01.flac
     7:03.22       74668988    ---   --   ---xx   gd89-07-15d1t02.flac
     7:02.68       74600780    ---   --   ---xx   gd89-07-15d1t03.flac
     7:16.65       77063324    ---   --   ---xx   gd89-07-15d1t04.flac
     7:33.01       79911596    ---   --   ---xx   gd89-07-15d1t05.flac
     8:01.04       84857852    ---   --   ---xx   gd89-07-15d1t06.flac
     7:26.13       78705020    ---   --   ---xx   gd89-07-15d1t07.flac
     6:15.09       66171212    ---   --   ---xx   gd89-07-15d1t08.flac
    13:53.37      147028268    ---   --   ---xx   gd89-07-15d1t09.flac
     1:51.74       19754492    ---   --   ---xx   gd89-07-15d2t01.flac
    10:46.05      113966204    ---   --   ---xx   gd89-07-15d2t02.flac
     7:40.36       81228716    ---   --   ---xx   gd89-07-15d2t03.flac
     9:23.67       99470828    ---   --   ---xx   gd89-07-15d2t04.flac
     8:08.62       86229068    ---   --   ---xx   gd89-07-15d2t05.flac
    10:14.68      108469580    ---   --   ---xx   gd89-07-15d2t06.flac
     9:44.68      103177580    ---   --   ---xx   gd89-07-15d2t07.flac
    16:03.28      169939100    ---   --   ---xx   gd89-07-15d3t01.flac
     7:56.22       84018188    ---   --   ---xx   gd89-07-15d3t02.flac
     7:00.68       74247980    ---   --   ---xx   gd89-07-15d3t03.flac
     8:25.28       89147900    ---   --   ---xx   gd89-07-15d3t04.flac
     6:16.25       66385244    ---   --   ---xx   gd89-07-15d3t05.flac
     4:39.41       49312076    ---   --   ---xx   gd89-07-15d3t06.flac
     7:10.42       75950828    ---   --   ---xx   gd89-07-15d3t07.flac
   182:21.29     1930061620 B                     (totals for 23 files, 0.4940 overall compression ratio)
Show Checksums
ffp
gd89-07-15d1t01.flac:91e0dcc31e81487b592f4a37b08114e6
gd89-07-15d1t02.flac:94cab2d8057d78c108370e8da6a10f01
gd89-07-15d1t03.flac:5a1dffdc1a3b7cf2bc6b98d92d457307
gd89-07-15d1t04.flac:3cea3117132ae4a066a877cc22de54d9
gd89-07-15d1t05.flac:be83d3626af63defc356283f5663a76c
gd89-07-15d1t06.flac:f94ecae16a25bc99d48b286e4731eeae
gd89-07-15d1t07.flac:30f85e6e565c52b3f8949cba8d371122
gd89-07-15d1t08.flac:ece9b42714487f2755a30d5b8ad29d23
gd89-07-15d1t09.flac:cb1a3ee690656ead8ed03ae9afbab8a5
gd89-07-15d2t01.flac:8bfaa2b23637281a30f2b6ea5a348930
gd89-07-15d2t02.flac:abb61cdf55f73ce8e28d28b15010f6e1
gd89-07-15d2t03.flac:f0dca52182dc798342d7ce4f7be59ff7
gd89-07-15d2t04.flac:8eb1cd29ce6a653e67407bd5005ce972
gd89-07-15d2t05.flac:e3da924dfdc8561aba9c6ab0263152b8
gd89-07-15d2t06.flac:c024c114bd781c9c550808017268715c
gd89-07-15d2t07.flac:b1da55b97ae9b6109fe2ab5b5bc3e74b
gd89-07-15d3t01.flac:e661256523388a10941161f584a63cf5
gd89-07-15d3t02.flac:fb00d8886a0b3a814fc8c9d59a33c685
gd89-07-15d3t03.flac:d18f1d95b9f9900173456a8d3e1f90db
gd89-07-15d3t04.flac:b987b029beb9149ec82cb5c26f25b4ec
gd89-07-15d3t05.flac:05250d17806bb7efdea060b6aabb7833
gd89-07-15d3t06.flac:5beabea16f43782f8df2183980dd823d
gd89-07-15d3t07.flac:35de82e935403f86a3a63f47ea08c508
flac-md5
6b85c27849516be1da95953a3519b578 *gd89-07-15d1t01.flac
8bbec56926c09a1ebbca714e840091ea *gd89-07-15d1t02.flac
d55e47c3e06a5a02998b8744c5afa700 *gd89-07-15d1t03.flac
6fa40bccd6489ca6228ec8e266b9b199 *gd89-07-15d1t04.flac
a8ef8dbd12ba069d084e15ac43dbd9c7 *gd89-07-15d1t05.flac
67095b641db620e26f9e941155cabc08 *gd89-07-15d1t06.flac
86f5f1853316c549e510e26789a8aca9 *gd89-07-15d1t07.flac
ae4fbc834040cfd8ba70a433bdfccb43 *gd89-07-15d1t08.flac
10af684e4e9d607f9aad8b92a849929e *gd89-07-15d1t09.flac
ba1d35d7bd56fdef138d3551ce558d1e *gd89-07-15d2t01.flac
2a9f7fe0a0f2c2b5f454d1825e3d6c87 *gd89-07-15d2t02.flac
faff895c8df8df61839ac404e32347d3 *gd89-07-15d2t03.flac
6a0557456c952f9cf5061711a96a897a *gd89-07-15d2t04.flac
b3698939aac98cd25e9128726e07fd1d *gd89-07-15d2t05.flac
906def1c91458c06cdf2499a4dcc09e8 *gd89-07-15d2t06.flac
374a9cffaac8b114042e45e2900a5f04 *gd89-07-15d2t07.flac
e367165fe04219ceae3db05ed0b9a253 *gd89-07-15d3t01.flac
7db653598dbb336df94fa0fb50287c9f *gd89-07-15d3t02.flac
3291216b282a0a8dd2d19fee251cff6b *gd89-07-15d3t03.flac
229427ffc15cd1918838c13b25634594 *gd89-07-15d3t04.flac
0d831a86e23f9a071ce9d4d00172e386 *gd89-07-15d3t05.flac
b1fcf9ad068586aaf969a9161ee51959 *gd89-07-15d3t06.flac
29a11fc5b85d1c2cb4a7e214091b68a6 *gd89-07-15d3t07.flac

Comments
Add Comment
Other Sources (comments)
SBD > MR > DAT > C > DAT >... (2) flac16; Recording... (0) flac16; Source:... (2) flac16; Taper: Greg... (0) flac16; Recorded by... (0) flac16; Recorded &... (0) flac24; Master... (0) flac16; Master... (0) flac24; Recording... (0) flac16; Recording... (0) flac16; source: aud... (0) flac24; source: aud... (0) flac24/96 Source... (0)
Date User Comment