Browse Collections Artists Sources   Search Dates

Add Show    List Management    Help


Zero 05/06/98
Coach House, San Juan Capistrano, CA
Comments Add Comment    Source Collectors    Add to Collection    Add to Want List    History
Source # 96725 Other Sources
Entered by
Checksums ffp
Disc Counts 2 / 2
Media Size
Date Circulated
Date Added
12/25/08
01/04/2009
Source Summary Source: FOB Schoeps mk41 > cmc6 > Sonosax SX-M2 > DA-P1 > D8
Taped by: Bonnie H.
Transfer: Sony D3 > coax > Audiophile 24/96 > Soundforge 9.0 @ [16/48; resample to 44.1] > cdwav (track) > Flac level 8 
Source Information - Download Text | Download Zip
Zero
San Juan Capistrano, Ca.
May 6, 1998
Coach House

Source: FOB Schoeps mk41 > cmc6 > Sonosax SX-M2 > DA-P1 > D8
Taped by:  Bonnie H.
Transfer: Sony D3 > coax > Audiophile 24/96 > Soundforge 9.0 @ [16/48; resample to 44.1] > cdwav (track) > Flac level 8
Transfered and Mastered by obaaron
December 24, 2008

Disc 1:

d1t01: Intro Tuning >
d1t02: Tangled Hangars
d1t03: Tuning
d1t04: Roll Me Over
d1t05: Friday's Child
d1t06: Papa Was a Rolling Stone
d1t07: Nancy Germany >
d1t08: Tuning >
d1t09: Ermaline

Disc 2:

d2t01: Tuning >
d2t02: Like a Rolling Stone >
d2t03: Can't Keep a Good Man Down >
d2t04: Anorexia
d2t05: Sun Sun Sun
d2t06: Catalina
d2t07: Crowd
d2t08: E) Use Me > Feelin' Alright > Use Me


shntool 3.0.4
Copyright (C) 2000-2007 Jason Jordan

    length     expanded size    cdr  WAVE problems  fmt   ratio  filename
     2:50.40       30082124 B   ---   --   ---xx   flac  0.3219  zero1998-05-06d1t01 - Intro Tuning.flac
    11:08.34      117915212 B   ---   --   ---xx   flac  0.5380  zero1998-05-06d1t02 - Tangled Hangars.flac
     1:46.06       18712556 B   ---   --   ---xx   flac  0.3200  zero1998-05-06d1t03 - Tuning.flac
     7:16.41       77006876 B   ---   --   ---xx   flac  0.4740  zero1998-05-06d1t04 - Roll Me Over.flac
     9:57.73      105482540 B   ---   --   ---xx   flac  0.5160  zero1998-05-06d1t05 - Fridays Child.flac
    10:59.72      116416988 B   ---   --   ---xx   flac  0.5347  zero1998-05-06d1t06 - Papa Was a Rolling Stone.flac
     9:58.35      105569564 B   ---   --   ---xx   flac  0.5148  zero1998-05-06d1t07 - Nancy Germany.flac
     1:40.72       17809388 B   ---   --   ---xx   flac  0.3170  zero1998-05-06d1t08 - Tuning.flac
     8:27.18       89477180 B   ---   --   ---xx   flac  0.5464  zero1998-05-06d1t09 - Ermaline.flac
     0:20.73        3699740 B   ---   --   ---xx   flac  0.3368  zero1998-05-06d2t01 - Tuning.flac
    16:50.70      178328684 B   ---   --   ---xx   flac  0.4666  zero1998-05-06d2t02 - Like A Rolling Stone.flac
    10:26.48      110539340 B   ---   --   ---xx   flac  0.4857  zero1998-05-06d2t03 - Can't Keep a Good Man Down.flac
     9:50.05      104087804 B   ---   --   ---xx   flac  0.4657  zero1998-05-06d2t04 - Anorexia.flac
    14:49.16      156857276 B   ---   --   ---xx   flac  0.4418  zero1998-05-06d2t05 - Sun Sun Sun.flac
    10:23.72      110066588 B   ---   --   ---xx   flac  0.4729  zero1998-05-06d2t06 - Catalina.flac
     2:01.26       21405596 B   ---   --   ---xx   flac  0.4347  zero1998-05-06d2t07 - Crowd.flac
    13:50.68      146571980 B   ---   --   ---xx   flac  0.4766  zero1998-05-06d2t08 - Use Me.flac
   142:40.19     1510029436 B                            0.4823  (17 files)

Show Checksums
ffp
zero1998-05-06d1t01 - Intro Tuning.flac:67581ac3a4b8f7b26222a2605b69f6ef
zero1998-05-06d1t02 - Tangled Hangars.flac:0c799ca83023271e7d0a1a728c98c4c5
zero1998-05-06d1t03 - Tuning.flac:7f3b33b88063b610ed3151f09294b5de
zero1998-05-06d1t04 - Roll Me Over.flac:59d39b6e38ab1e842041842a1814b0af
zero1998-05-06d1t05 - Fridays Child.flac:85db594cef7cb38db4ee0d65b96d82e5
zero1998-05-06d1t06 - Papa Was a Rolling Stone.flac:1d35cfdfde99562c4d6b6e55fc969a90
zero1998-05-06d1t07 - Nancy Germany.flac:cf218f42ab99d4a6f716f29bf86c2b79
zero1998-05-06d1t08 - Tuning.flac:3ff37c4de7a592780d8c17c523691277
zero1998-05-06d1t09 - Ermaline.flac:5c73f195e60b2c44fb30f86196804598
zero1998-05-06d2t01 - Tuning.flac:6e5ec882c7040a82fd777b85eeb35358
zero1998-05-06d2t02 - Like A Rolling Stone.flac:94ace40f4e8d453997cad63f5846b2fc
zero1998-05-06d2t03 - Can't Keep a Good Man Down.flac:8845f722f719f4d2a8aee1761e4f73f9
zero1998-05-06d2t04 - Anorexia.flac:eae4c9a407a7c99902b6f25a732ebfd6
zero1998-05-06d2t05 - Sun Sun Sun.flac:8e575b29ffe468d581abe3b4ce594f4d
zero1998-05-06d2t06 - Catalina.flac:652b38ec01ee4dc3d49be36ce1668d8c
zero1998-05-06d2t07 - Crowd.flac:12ee67f3b08b043952c519813eb803b2
zero1998-05-06d2t08 - Use Me.flac:6d2f3db5ecc5ade23ce43f596b916307

Comments
Add Comment
Other Sources (comments)
(FOB) Schoeps CMC6/MK41 >... (0) flac16;Recording... (0)
Date User Comment