Browse Collections Artists Sources   Search Dates Setlists

Add Show    List Management    Forums    Help


Medeski Martin & Wood 06/21/98
4th and B, San Diego, CA
Comments Add Comment    Source Collectors    Add to Collection    Add to Want List    History
Source # 96743 Other Sources
Entered by duggy
Checksums ffp , md5
Disc Counts 1 / 2
Media Size
Date Circulated
Date Added
01/04/2009
01/05/2009
Source Summary flac16; fob neumann km140 (stealth in hat) > neumann p/s > sony d-7; Taped by Steve M.; sony d-3 > coax > audiophile 2496 > sf 9.0 (16/48; resample 44.1 > cd wave (track) > flac level 8; Transferred by obaaron 
Source Information - Download Text | Download Zip
Medeski Martin & Wood
June 21, 1998
4th & B.
San Diego, CA


Source: fob neumann km140 (stealth in hat) > neumann p/s > sony d-7
Taped by: Steve M.
Transfer: sony d-3 > coax > audiophile 2496 > sf 9.0 (16/48; resample 44.1 > cd wave (track) > flac level 8
Transfer by: obaaron

--= One Set Only =--

Disc One:
01. Improv >
02. Improv >
03. Wiggly's Way
04. Macha > Coconut Boogaloo [@7:39]
05. Sugar Craft, Just Like I Pictured It [@5:03]

Disc Two:
01. Latin Shuffle > Bass Solo [@9:02] > Open Improv [@10:11] >
02. Everyday People, Gonzo [@8:37] >
03. Gonzo cont'd > Combustication [@1:11] ; Encore: Night Marchers [@6:11]
04. 'outro'

16/48k raw transfers archived.

    length     expanded size    cdr  WAVE problems  fmt   ratio  filename
     6:13.43       65898380 B   ---   --   ---xx   flac  0.4977  mmw1998-06-21d1t01.flac
    12:03.10      127560764 B   ---   --   ---xx   flac  0.4934  mmw1998-06-21d1t02.flac
     8:23.01       88731596 B   ---   --   ---xx   flac  0.4689  mmw1998-06-21d1t03.flac
    14:41.73      155580140 B   ---   --   ---xx   flac  0.4975  mmw1998-06-21d1t04.flac
    19:06.73      202326140 B   ---   --   ---xx   flac  0.4735  mmw1998-06-21d1t05.flac
    14:07.37      149497868 B   ---   --   ---xx   flac  0.4424  mmw1998-06-21d2t01.flac
    18:18.63      193835420 B   ---   --   ---xx   flac  0.4464  mmw1998-06-21d2t02.flac
    11:23.42      120580028 B   ---   --   ---xx   flac  0.5419  mmw1998-06-21d2t03.flac
     0:32.19        5690004 B   -b-   --   ---xx   flac  0.5215  mmw1998-06-21d2t04.flac
   104:50.61     1109700340 B                            0.4790  (9 files)

Show Checksums
ffp
mmw1998-06-21d1t01.flac:79fced626ab30e454da5bf6e33afedd0
mmw1998-06-21d1t02.flac:75793481e4e864f8b85e88b247b30012
mmw1998-06-21d1t03.flac:b4a6d2a0e7f9aa72239b51a3b503f6a9
mmw1998-06-21d1t04.flac:17c31bf4a2cfe21824f241c09790b5b0
mmw1998-06-21d1t05.flac:912e17fd23826605dcaef902aa691a8e
mmw1998-06-21d2t01.flac:a1c7bdaf68634f749f7a4dec8e538488
mmw1998-06-21d2t02.flac:f521b1cd50a8818f5b53ef2a78dc24b3
mmw1998-06-21d2t03.flac:fba360a502127999460186d9bba4538e
mmw1998-06-21d2t04.flac:a07a34b1f340fe934976bd7c444485fe
md5
b205b746e1e08331898106e07ccda56f *mmw1998-06-21d1t01.flac
03ef5602dbb5b8affd5464c7b2410a76 *mmw1998-06-21d1t02.flac
2aa2830ae834a0c0729c999f905c74ef *mmw1998-06-21d1t03.flac
b49f0585b72f7ef362d9c75a32196722 *mmw1998-06-21d1t04.flac
7c2cd9b5cdf6b98618d317e2b74453f6 *mmw1998-06-21d1t05.flac
e4b4d5c429bf18084ca3e655bd4eebb1 *mmw1998-06-21d2t01.flac
2f7e93963afb5f6f287df3d654cc289e *mmw1998-06-21d2t02.flac
0d4c23322cec06318ec9680dfa4468ca *mmw1998-06-21d2t03.flac
b5fab841da7e460f7716c30563c9a92e *mmw1998-06-21d2t04.flac

Comments
Add Comment
Date User Comment