Browse Collections Artists Sources   Search Dates

Add Show    List Management    Help


Zero 05/07/98
Belly Up Tavern, Solano Beach, CA
Comments Add Comment    Source Collectors    Add to Collection    Add to Want List    History
Source # 96788 Other Sources
Entered by skbnut
Checksums md5 , ffp
Disc Counts 2 / 2
Media Size
Date Circulated
Date Added

01/06/2009
Source Summary FOB Neumann km140 > neumann p/s > Panasonic Sv-255 > D8, Taped by: Steve M., Transfer: Sony D3 > coax > Audiophile 24/96 > Soundforge 9.0 @ [16/48; resample to 44.1] > cdwav (track) > Flac level 8, Transfered and Mastered by obaaron 
Source Information - Download Text | Download Zip
Zero
Solana Beach, Ca.
May 7, 1998
"Belly Up Tavern"

Source: FOB Neumann km140 > neumann p/s > Panasonic Sv-255 > D8
Taped by:  Steve M.

Transfer: Sony D3 > coax > Audiophile 24/96 > Soundforge 9.0 @ [16/48; resample to 44.1] > cdwav (track) > Flac level 8
Transfered and Mastered by obaaron
December 24, 2008

Disc 1:

d1t01: Pits of Thunder
d1t02: Highway 61
d1t03: Chance in a Million
d1t04: Listen Here
d1t05: Six Days on the Highway
d1t06: Mr. Broadway
d1t07: Home on the Range
d1t08: Encore) Mercury Blues

Disc 2:

d2t01: Cole's Law
d2t02: Golden Road
d2t03: Tuning >
d2t04: Like A Rolling Stone >
d2t05: Berm
d2t06: Tuning >
d2t07: Out in the Woods
d2t08: Gregg's Eggs

shntool 3.0.4
Copyright (C) 2000-2007 Jason Jordan

    length     expanded size    cdr  WAVE problems  fmt   ratio  filename
    13:31.69      143222732 B   ---   --   ---xx   flac  0.5202  zero1998-05-07d1t01 - Pits of Thunder.flac
     7:36.62       80584268 B   ---   --   ---xx   flac  0.5632  zero1998-05-07d1t02 - Highway 61.flac
     8:10.27       86499548 B   ---   --   ---xx   flac  0.5293  zero1998-05-07d1t03 - Chance In a Million.flac
    12:50.10      135851564 B   ---   --   ---xx   flac  0.5125  zero1998-05-07d1t04 - Listen Here.flac
     5:01.72       53265788 B   ---   --   ---xx   flac  0.5749  zero1998-05-07d1t05 - Six Days on the Highway.flac
     9:41.44      102591932 B   ---   --   ---xx   flac  0.5234  zero1998-05-07d1t06 - Mr. Broadway.flac
    12:30.67      132457628 B   ---   --   ---xx   flac  0.5474  zero1998-05-07d1t07 - Home on the Range.flac
    10:07.00      107074844 B   ---   --   ---xx   flac  0.5524  zero1998-05-07d1t08 - Mercury Blues.flac
    10:56.63      115866620 B   ---   --   ---xx   flac  0.4956  zero1998-05-07d2t01 - Cole's Law.flac
    10:48.39      114398972 B   ---   --   ---xx   flac  0.5681  zero1998-05-07d2t02 - Golden Road.flac
     2:03.63       21845420 B   ---   --   ---xx   flac  0.3935  zero1998-05-07d2t03 - Tuning.flac
    13:04.45      138403484 B   ---   --   ---xx   flac  0.4892  zero1998-05-07d2t04 - Like A Rolling Stone.flac
    11:44.14      124218572 B   ---   --   ---xx   flac  0.5517  zero1998-05-07d2t05 - Berm.flac
     5:05.70       53966684 B   ---   --   ---xx   flac  0.4437  zero1998-05-07d2t06 - Tuning.flac
    12:02.70      127525484 B   ---   --   ---xx   flac  0.4965  zero1998-05-07d2t07 - Out in the Woods.flac
    14:03.63      148853420 B   ---   --   ---xx   flac  0.5347  zero1998-05-07d2t08 - Gregg's Eggs.flac
   159:21.28     1686626960 B                            0.5249  (16 files)
Show Checksums
md5
026cb304e6879dad9923a85d44895f5f *zero1998-05-07d1t01 - Pits of Thunder.flac
bc64e8a3c64d7587c8f354a649696acc *zero1998-05-07d1t02 - Highway 61.flac
abfc786ffe28b6f254ffd47f0000a04c *zero1998-05-07d1t03 - Chance In a Million.flac
ef0e99a1a6df9ae113de24b0681b8864 *zero1998-05-07d1t04 - Listen Here.flac
4a591c0a127da2139d8910c43c79f8e9 *zero1998-05-07d1t05 - Six Days on the Highway.flac
4f4cd7e786b8c6a0fa22d29d4ebf3c50 *zero1998-05-07d1t06 - Mr. Broadway.flac
96d4b8dc09613a5929a2d253d0d2fd2f *zero1998-05-07d1t07 - Home on the Range.flac
127f29834a7d943925ee34129a34c3f5 *zero1998-05-07d1t08 - Mercury Blues.flac
5cecdc1f3f520d6cd9a293483a93764c *zero1998-05-07d2t01 - Cole's Law.flac
13042b223f3b787e9d956cc835a7340d *zero1998-05-07d2t02 - Golden Road.flac
a5ed9ef6de1a964fadc03b619d76c5ae *zero1998-05-07d2t03 - Tuning.flac
e4b98c3fec89553b4567842a2202f530 *zero1998-05-07d2t04 - Like A Rolling Stone.flac
c4c15dcf5817bf2f7f647544963aa5c1 *zero1998-05-07d2t05 - Berm.flac
f81de7e87d7eefd6033ad954ff7c850d *zero1998-05-07d2t06 - Tuning.flac
bc64bfbac7e195603a241583bb241635 *zero1998-05-07d2t07 - Out in the Woods.flac
2110c653ac9ed2724894f72200df44ac *zero1998-05-07d2t08 - Gregg's Eggs.flac
ffp
zero1998-05-07d1t01 - Pits of Thunder.flac:60a5507ca9e19c496957afe5da3a75c9
zero1998-05-07d1t02 - Highway 61.flac:fc86be504dde3fadb9242f5f2e887bae
zero1998-05-07d1t03 - Chance In a Million.flac:48f67c5abaf5315918ce76d0837724b6
zero1998-05-07d1t04 - Listen Here.flac:8776ea1d2e11e761bbf8341180e78e92
zero1998-05-07d1t05 - Six Days on the Highway.flac:35301e8cba39dea8f96aab2a0c78c7ab
zero1998-05-07d1t06 - Mr. Broadway.flac:6b9ae1ab497aa478d4c95e58544e995f
zero1998-05-07d1t07 - Home on the Range.flac:78221f215a5a7a020ffd3c1cc2b10901
zero1998-05-07d1t08 - Mercury Blues.flac:d69268e8486f6c99ce1efc5ffd1357aa
zero1998-05-07d2t01 - Cole's Law.flac:bfb00ba140370416d2fa334406d48585
zero1998-05-07d2t02 - Golden Road.flac:f678a054b111c65258d7e236e41ce86b
zero1998-05-07d2t03 - Tuning.flac:6f372cf8b2d0413a9651b18e09144c7e
zero1998-05-07d2t04 - Like A Rolling Stone.flac:e1c7eb15d4b862d2e8520bd3db837841
zero1998-05-07d2t05 - Berm.flac:019e666d343f2f9c7f4f982dfe5a250f
zero1998-05-07d2t06 - Tuning.flac:7f6b15075b9e972aa7ed8d87a2fa0111
zero1998-05-07d2t07 - Out in the Woods.flac:3cd4c3a1c69fb7e9de81b190f84fe552
zero1998-05-07d2t08 - Gregg's Eggs.flac:1c7264cb278f67cfd6a4ae5acc8481a8

Comments
Add Comment
Other Sources (comments)
(FOB) Neumann KM140 >... (0) Source: FOB Neumann km140 >... (0) flac16;Recording... (0)
Date User Comment