Browse Collections Artists Sources   Search Dates

Add Show    List Management    Help


Grateful Dead 10/12/89
Meadowlands Arena, East Rutherford, NJ
Comments Add Comment    Source Collectors    Add to Collection    Add to Want List    History
Source # 96790 Other Sources
Entered by dr.unclear
Checksums ffp , flac-md5
Disc Counts 2 / 2
Media Size
Date Circulated
Date Added
01/07/2008
01/06/2009
Source Summary flac16; matrix of SBD: shnid=83293 and AUD: shnid=89620 by hansokolow using ProTools 
  Archive
Source Information - Download Text | Download Zip
Grateful Dead
Thursday, October 12th, 1989
Meadowlands Arena
East Rutherford, NJ

       cd1  -  set 1
1)  Hell In A Bucket->
2)  Sugaree
3)  Blow Away
4)  Tennessee Jed
5)  Queen Jane Approximately
6)  Bird Song
7)  Jack Straw

            -  set 2
8)  Hey Pocky Way->
9)  Cumberland Blues->

       cd2
1)  Looks Like Rain->
2)  He's Gone ->
3)  Drums->
4)  Space ->
5)  The Other One->
6)  Wharf Rat->
7)  Sugar Magnolia
8)    e:  Brokedown Palace

-----------------------------------

This is a matrix, done by hansokolow in ProTools, of the following sources:

SBD: shnid= 83293

SBD -> Cassette Master (TDK MA-XG90)

Transfer Info:
Cassette Master (Tascam 122mkII) -> Apogee MiniMe (24bit/48k) ->
Samplitude Professional v8.01 -> FLAC/16
(3 Discs Audio / 2 Discs FLAC)

All Transfers and Mastering By Charlie Miller
[email protected]
febryary 5, 2007

Patch Info:
(2) Nakamichi 300/CP4 + (2) Nakamichi 100/CP1 -> Cassette Master -> CD
Space (3:45 - 4:12)

Notes:
-- Set 2 is seamless
-- Thanks to Paul Scotton and Joani Walker for the tapes
-- Patch source recorded By Steve Cherson

-----------------------------------

AUD: shnid=89620
AUD: Sennheiser MD-421's > patched thru one D5 > Sony TC-D5M > Maxell
MX-90's, with no Dolby. Mics on 8-foot stand, front row of OTS.

Transfer: MAC > Nakamichi DR-8 (no Dolby) > Audiophile 2496 analog-in >
Soundforge > CD-Wave > TLH > FLAC. Taped and transferred by Andrew F.

Notes:
- Two-disc burn option: end D1 with Cumberland, start D2 with LLRain.
- Soundforge used for fades, clean-up around tape flips.
- TLH used for SBE-OK, FLAC compression, and checksums.

-----------------------------------

My Notes:  AUD source slowed down, song by song, to match the SBD source.

-Tano ([email protected])


    length     expanded size    cdr  WAVE problems  fmt   ratio  filename
     7:33.13       79939820 B   ---   --   ---xx  gd89-10-12d1t01.flac
    10:06.58      107034860 B   ---   --   ---xx  gd89-10-12d1t02.flac
    10:09.74      107601692 B   ---   --   ---xx  gd89-10-12d1t03.flac
     8:37.10       91222364 B   ---   --   ---xx  gd89-10-12d1t04.flac
     6:49.50       72265244 B   ---   --   ---xx  gd89-10-12d1t05.flac
    14:47.14      156499772 B   ---   --   ---xx  gd89-10-12d1t06.flac
     6:19.54       66982652 B   ---   --   ---xx  gd89-10-12d1t07.flac
     8:42.55       92210204 B   ---   --   ---xx  gd89-10-12d1t08.flac
     5:54.21       62495036 B   ---   --   ---xx  gd89-10-12d1t09.flac
     8:35.68       91005980 B   ---   --   ---xx  gd89-10-12d2t01.flac
    12:17.29      130075052 B   ---   --   ---xx  gd89-10-12d2t02.flac
     8:10.42       86534828 B   ---   --   ---xx  gd89-10-12d2t03.flac
    13:38.40      144389324 B   ---   --   ---xx  gd89-10-12d2t04.flac
     8:21.14       88409372 B   ---   --   ---xx  gd89-10-12d2t05.flac
    12:15.55      129783404 B   ---   --   ---xx  gd89-10-12d2t06.flac
     8:19.05       88035404 B   ---   --   ---xx  gd89-10-12d2t07.flac
     6:01.71       63847436 B   ---   --   ---xx  gd89-10-12d2t08.flac
   156:40.73     1658332444 B                            0.5817  (17 files)
Show Checksums
ffp
gd89-10-12d1t01.flac:395c23812a38eec614b1c04292cabbd1
gd89-10-12d1t02.flac:dc3e743521b91d98db898dafcf9e49a7
gd89-10-12d1t03.flac:c6e08d48d196f8305312b321629b12a4
gd89-10-12d1t04.flac:fbe986042cbba2efc03dfd416c3c9802
gd89-10-12d1t05.flac:883c234362d48e904daf37975c48729e
gd89-10-12d1t06.flac:6b10e44bdbc563b34de45d54dbe4cfda
gd89-10-12d1t07.flac:951d9b45fda8eb31c54667b7ad1601b4
gd89-10-12d1t08.flac:c24b97cbf49cff40bdb1096c2e5e2688
gd89-10-12d1t09.flac:746ae2a6a32cf501bf5ac171af09b8d1
gd89-10-12d2t01.flac:a714cbb855852e5fc5fc45b546ac89ab
gd89-10-12d2t02.flac:6875d35c1f62f15cc9955ec8118d0a44
gd89-10-12d2t03.flac:b3012fbb200b879b2c5f0f9b940652ae
gd89-10-12d2t04.flac:15a8b25e364fef45d4f987a6a0d97e29
gd89-10-12d2t05.flac:ec9ae2fabe0f21dc1763ec3036c16460
gd89-10-12d2t06.flac:5f437f156216bf28e3115a2f9391557a
gd89-10-12d2t07.flac:7f3ee5066661713344826c38594798f2
gd89-10-12d2t08.flac:5f08ca8f150fc58c7a51589b9a6947ec
flac-md5
1ce90779687f6a9226e2423ce0507588 *gd89-10-12d1t01.flac
d15e8b5f37376c041ba82db37ec239a9 *gd89-10-12d1t02.flac
bc403fb3eac251a53789490e16e8fae1 *gd89-10-12d1t03.flac
b484049e344b18602211f91ee49c237b *gd89-10-12d1t04.flac
ae75f4b6be70b7871e732007ac784a10 *gd89-10-12d1t05.flac
d7d6c0c8fae2e66bfdeb12223a616d5a *gd89-10-12d1t06.flac
4bd5895d11d896faf701cd1f903f0e67 *gd89-10-12d1t07.flac
88fb7731d8217b5baf1734d048a98825 *gd89-10-12d1t08.flac
466faa97347c6f54231f782a77ac020a *gd89-10-12d1t09.flac
c9f9efcbe5c55fc6b90fe4b4f65d1da6 *gd89-10-12d2t01.flac
c8c1e5d641ac1a9cad7e5decd7be4806 *gd89-10-12d2t02.flac
5c881ef4fcb5378ac6e9b525b0566a8f *gd89-10-12d2t03.flac
20467fd04ed5d459391cafaadc891800 *gd89-10-12d2t04.flac
53725787abe9323503d8c52566f1bd84 *gd89-10-12d2t05.flac
d774a28aef67782c3e747a43bb379c85 *gd89-10-12d2t06.flac
2f2489afa463971046ac2aad8eaf4213 *gd89-10-12d2t07.flac
b20600500b933409ccb54d2ebb515653 *gd89-10-12d2t08.flac

Comments
Add Comment
Other Sources (comments)
Sbd> Cas(m)> Dat> ZA2/PC>... (0) Lineage: SBD -> Cm -> Dat... (0) flac16; Recording... (0) flac16; AUD:... (0) flac16; Master... (0) flac24; Master... (0) flac16; Taper: M.... (0) flac24; Master... (0) flac16; Master... (0) flac16/48kHz;... (0) flac16/48kHz; Source... (0)
Date User Comment