Browse Collections Artists Sources   Search Dates

Add Show    List Management    Help


Grateful Dead 10/14/89
Meadowlands Arena, East Rutherford, NJ
Comments Add Comment    Source Collectors    Add to Collection    Add to Want List    History
Source # 96794 Other Sources
Entered by dr.unclear
Checksums flac-md5 , ffp
Disc Counts 2 / 2
Media Size
Date Circulated
Date Added
01/08/2009
01/07/2009
Source Summary flac16; matrix of SBD: shnid=83296 and DAUD: shnid=88087 by hansokolow using ProTools  
  Archive
Source Information - Download Text | Download Zip
Grateful Dead
Saturday, October 14th, 1989
Meadowlands Arena
East Rutherford, NJ

        cd1  -  set 1
1) (crowd/tuning)
2)  Touch Of Grey
3)  Minglewood Blues
4)  We Can Run But We Can't Hide
5)  Friend Of The Devil
6)  Mama Tried->
7)  Mexicali Blues
8)  Help On The Way->
9)  Slipknot!->
10)  Franklin's Tower

        plus encore:
11) (crowd/tuning)
12)    e:  Black Muddy River

        cd2  -  set 2
1) (crowd/tuning)
2)  Foolish Heart->
3)  Man Smart, Woman Smarter
4)  Scarlet Begonias->
5)  Truckin'->
6)  Jam->
7)  Drums->
8)  Space->
9)  China Doll->
10)  One More Saturday Night

-----------------------------------

This is a matrix, done by hansokolow in ProTools, of the following sources:

SBD: shnid=83296
SBD -> Cassette Master (TDK MA-XG90)
Transfer Info: Cassette Master (Tascam 122mkII) -> Apogee MiniMe (24bit/48k) -> Samplitude Professional v8.01 -> FLAC/16 (2 Discs Audio / 2 Discs FLAC)

All Transfers and Mastering By Charlie Miller
[email protected]
January 28, 2007

Patch Info:
(2) Nakamichi 300/CP4 + (2) Nakamichi 100/CP1 -> Cassette Master -> CD
Drums (3:36 - 3:42)

Notes:
-- Thanks to Paul Scotton and Joani Walker for the tapes
-- Patch source recorded By Steve Cherson

-----------------------------------

DAUD: shnid=88087
Sennheiser ME-80's>Technics SVM-D1 (Front of Taper's Section)
DAT Master>Sony TCD-D10PROII>Edirol R-4>Wavelab 5(Sample Rate Conversion to 44.1khz & Fades)>CDWAV>FLAC; Recorded by Keith Litzenberger & Sam Tzirlin; Transfer by Keith Litzenberger

-----------------------------------

My Notes:  AUD source slowed down, song by song, to match the SBD source.
On Fall break from Oberlin College, I tried to get into this show to no avail.  We did get in the follwing night, which was my second Dead show.  This show we spent in the parking lot, making giant bubbles and meeting people.  Word got out about the first set 1 Help>Slip>Franklin's in many years, and we were sad.  Hi Dave and Sonja!

-Tano ([email protected])


    length     expanded size    cdr  WAVE problems  fmt   ratio  filename
     3:32.64       37547372 B   ---   --   ---xx  gd89-10-14d1t01.flac
     6:22.70       67549484 B   ---   --   ---xx  gd89-10-14d1t02.flac
    10:08.45      107357084 B   ---   --   ---xx  gd89-10-14d1t03.flac
     6:49.63       72295820 B   ---   --   ---xx  gd89-10-14d1t04.flac
     9:50.03      104083100 B   ---   --   ---xx  gd89-10-14d1t05.flac
     2:37.28       27760700 B   ---   --   ---xx  gd89-10-14d1t06.flac
     6:36.00       69854444 B   ---   --   ---xx  gd89-10-14d1t07.flac
     4:10.53       44224700 B   ---   --   ---xx  gd89-10-14d1t08.flac
     5:07.36       54239516 B   ---   --   ---xx  gd89-10-14d1t09.flac
     8:59.59       95218412 B   ---   --   ---xx  gd89-10-14d1t10.flac
     1:16.21       13455836 B   ---   --   ---xx  gd89-10-14d1t11.flac
     6:58.08       73754060 B   ---   --   ---xx  gd89-10-14d1t12.flac
     2:35.11       27367916 B   ---   --   ---xx  gd89-10-14d2t01.flac
     7:34.28       80151500 B   ---   --   ---xx  gd89-10-14d2t02.flac
    10:25.33      110327660 B   ---   --   ---xx  gd89-10-14d2t03.flac
    12:52.18      136223180 B   ---   --   ---xx  gd89-10-14d2t04.flac
     6:51.72       72669788 B   ---   --   ---xx  gd89-10-14d2t05.flac
     4:08.13       43777820 B   ---   --   ---xx  gd89-10-14d2t06.flac
     5:26.22       57558188 B   ---   --   ---xx  gd89-10-14d2t07.flac
    11:25.00      120834044 B   ---   --   ---xx  gd89-10-14d2t08.flac
     7:25.31       78570956 B   ---   --   ---xx  gd89-10-14d2t09.flac
     7:03.65       74770124 B   ---   --   ---xx  gd89-10-14d2t10.flac
   148:17.68     1569591704 B                            0.5528  (22 files)
Show Checksums
flac-md5
3e05ca47dd2ac09d3d74edfded84dda6 *gd89-10-14d1t01.flac
06b34d1858d9db220a767b579cd5e40a *gd89-10-14d1t02.flac
4331e65d6bd9b5098ca1aa2df2154bc4 *gd89-10-14d1t03.flac
9ce8e0c9474831a9287e4c236d799f3a *gd89-10-14d1t04.flac
2d919cb1dfabafc0e2e840bbda1edc30 *gd89-10-14d1t05.flac
6dc71fad50b88a5167225ff897565c25 *gd89-10-14d1t06.flac
5f31cb0da130b8c3744c99e228f3075f *gd89-10-14d1t07.flac
a863a4e942c63ae596cd376efbf7ed4b *gd89-10-14d1t08.flac
64c303fa01f0bf9c59c053ac88bf9f08 *gd89-10-14d1t09.flac
d8e94069f1f70a4be3301c1d902bfda0 *gd89-10-14d1t10.flac
9382cba96ec665fbaa9765955bf61a4f *gd89-10-14d1t11.flac
8bb2dee0062b24172f6a9f523c4fbc4b *gd89-10-14d1t12.flac
8413da3941b7ce79b97186ecace8d6d1 *gd89-10-14d2t01.flac
7731aac27e9f0a7b239c120eb976cb6b *gd89-10-14d2t02.flac
af94309bf34a41a3258a3bb8fd45d2eb *gd89-10-14d2t03.flac
0fe0300ddfd351f48ea7518550c3ff2e *gd89-10-14d2t04.flac
31e78509996db38cec86bca0753c58cd *gd89-10-14d2t05.flac
f262ff4ffe8086268bbc668c186b2e4a *gd89-10-14d2t06.flac
fdb4a45964b76674b1467cf0fc300013 *gd89-10-14d2t07.flac
cd0a5eac24b1bff772fe06df0dcea6d8 *gd89-10-14d2t08.flac
55ab883260672def3b63dda1da2f27dd *gd89-10-14d2t09.flac
c52327ed83439654910f9caee3c8537b *gd89-10-14d2t10.flac
ffp
gd89-10-14d1t01.flac:aa66212bb9aaeafbec30be3dc038c325
gd89-10-14d1t02.flac:0c39beda700937f5f3bca41ea71ddef9
gd89-10-14d1t03.flac:323445d807baf52c6d3b746784199cab
gd89-10-14d1t04.flac:2d32b5eb0bd87f1847aab2b3dfef9945
gd89-10-14d1t05.flac:5f9bb8df62b339fc5e45ef0c35b2469c
gd89-10-14d1t06.flac:24dd00c525f4da11894141fd62e7ce1d
gd89-10-14d1t07.flac:69601db4525672ab7bcd93759f3bdea6
gd89-10-14d1t08.flac:98fe3a2d0b90786de22473fe36331771
gd89-10-14d1t09.flac:8a99c071a018e9f0c4a3c1ff2c08f554
gd89-10-14d1t10.flac:13137a94be2eabb5e74e1b876362dd32
gd89-10-14d1t11.flac:1f11695c98485af576c3d073c462b64b
gd89-10-14d1t12.flac:ba4c95bd70ad8758820b9bf14c60168c
gd89-10-14d2t01.flac:a0343690335e5e04256b369dbc23cd28
gd89-10-14d2t02.flac:cb58b8afd056c7cf1bb2e6469df393b6
gd89-10-14d2t03.flac:8aee2a961d7ab23e170b74299c51b6c9
gd89-10-14d2t04.flac:2ed438e23729154fb96ed550797588d9
gd89-10-14d2t05.flac:7514a2f58475f17cf4e2de8f8ceffd3c
gd89-10-14d2t06.flac:339c3fc6d5cc725781ec5aefdc5bd34b
gd89-10-14d2t07.flac:265c009561f2edc3aabbda00a58b7a84
gd89-10-14d2t08.flac:19f5cb2579d625285ebbffdb246b26e6
gd89-10-14d2t09.flac:16dfb87fea26deb828ff5f0b02a460aa
gd89-10-14d2t10.flac:db36224307825888b10de6998e3886e1

Comments
Add Comment
Other Sources (comments)
Sbd> Cas(m)> Dat> ZA2/PC>... (1) Recording Info: SBD ->... (0) flac16; Recording... (0) flac16; Sennheiser... (1) flac16; AUD:... (0) flac16; Sennheiser... (2) flac16; Master: AKG... (0) flac24; Master... (0) flac16; Master... (0) flac16; Set 2... (0) flac16; Taper: M.... (0) flac16/48kHz; Ted... (0) flac24; Recording... (0) flac16/48kHz; Source... (0)
Date User Comment