Browse Collections Artists Sources   Search Dates

Add Show    List Management    Help


Grateful Dead 05/13/83
Greek Theatre, U. Of California, Berkeley, CA
Comments Add Comment    Source Collectors    Add to Collection    Add to Want List    History
Source # 96817 Other Sources
Entered by Steve Swartz
Checksums flac-md5 , ffp
Disc Counts 2 / 3
Media Size
Date Circulated
Date Added
01/09/2009
01/09/2009
Source Summary flac16; Audience Recording Lineage: 3 Nak 700's (L & R Cardioids, Center Omni - 3 DB Low Pass filter)> -15 db pads> 3 mic mixer Preamp> Patchbay> Sony D6> MAC (Dolby B )> CR-5A> HD-P2> 24/96 .wav> WaveLab 5.0> Waves L3 UltraMaximizer> 16/44.1 .wav> CD Wave Editor> TLH> flac16. Taped by the anonymous taper, Mark Severson and Jamie Poris. 
  Archive
Source Information - Download Text | Download Zip
Grateful Dead
Greek Theatre
University of California
Berkeley, CA
05/13/1983 - Friday

Source: Audience Recording

Lineage: 3 Nak 700's (L & R Cardioids, Center Omni - 3 DB Low Pass filter)> -15 db pads>  3 mic mixer Preamp> Patchbay>
Sony D6> MAC (Dolby B )> CR-5A> HD-P2> 24/96 .wav> WaveLab 5.0> Waves L3 UltraMaximizer>
16/44.1 .wav> CD Wave Editor> TLH> flac16.


Disc 01
Set I:

01 Cold Rain and Snow
02 Greatest Story Ever Told
03 West L.A. Fadeaway
04 Hell In A Bucket*
05 Loser
06 Little Red Rooster
07 Bird Song
08 Let It Grow

Disc 02
Set II:

01 China Cat Sunflower >
02 I Know You Rider >
03 Estimated Prophet >
04 Eyes Of The World >
05 Drums >

Disc 03
Set II cont'

01 Space >
02 Throwing Stones >
03 The Other One >
04 Wharf Rat >
05 Around and Around >
06 Good Lovin'

-----------------------------
Total Time:
2 hours 56 minutes 48 seconds
-----------------------------



Notes:

- * First time performed
- The bass on this recording was extremely heavy and has been toned down. There is some minor
distortion from time to time.
- Gaps (crowd noise) between songs in Set I crossfaded.

Patches:

d1t06 - 00:00-00:14, 00:47-01:54
d1t08 - 11:43-12:27(right channel)
d2t05 - tape filp
d3t04 - 07:24-08:56
d3t05 - 00:00-02:40

Patch source: shnid=94514

---------------------------------------------------------

- Taped by the anonymous taper, Mark Severson and Jamie Poris.

- Transferred by BGreen.

- Edited and mastered by Alex Ford.

- First seeded to www.shnflac.net January 2009.

- Brought To You By Live Music Preservation Project

- Have questions/comments, contact [email protected]


-----------------------------------------------------------

Shntool output:


    length     expanded size    cdr  WAVE problems  fmt   ratio  filename
     8:13.00       86965244 B   ---   --   -----    wav  1.0000  gd1983-05-13-nak700s-d1t01.wav
     5:25.64       57480572 B   ---   --   -----    wav  1.0000  gd1983-05-13-nak700s-d1t02.wav
     9:06.23       96368540 B   ---   --   -----    wav  1.0000  gd1983-05-13-nak700s-d1t03.wav
     5:33.62       58887068 B   ---   --   -----    wav  1.0000  gd1983-05-13-nak700s-d1t04.wav
     6:56.55       73511804 B   ---   --   -----    wav  1.0000  gd1983-05-13-nak700s-d1t05.wav
     9:20.09       98805212 B   ---   --   -----    wav  1.0000  gd1983-05-13-nak700s-d1t06.wav
    10:48.22      114358988 B   ---   --   -----    wav  1.0000  gd1983-05-13-nak700s-d1t07.wav
    12:37.41      133631276 B   ---   --   -----    wav  1.0000  gd1983-05-13-nak700s-d1t08.wav
     8:55.44       94477532 B   ---   --   -----    wav  1.0000  gd1983-05-13-nak700s-d2t01.wav
     6:44.66       71420876 B   ---   --   -----    wav  1.0000  gd1983-05-13-nak700s-d2t02.wav
    12:28.30      132017804 B   ---   --   -----    wav  1.0000  gd1983-05-13-nak700s-d2t03.wav
    18:58.73      200914940 B   ---   --   -----    wav  1.0000  gd1983-05-13-nak700s-d2t04.wav
     8:56.26       94611596 B   ---   --   -----    wav  1.0000  gd1983-05-13-nak700s-d2t05.wav
    10:37.71      112533836 B   ---   --   -----    wav  1.0000  gd1983-05-13-nak700s-d3t01.wav
    10:48.33      114384860 B   ---   --   -----    wav  1.0000  gd1983-05-13-nak700s-d3t02.wav
     7:51.14       83117372 B   ---   --   -----    wav  1.0000  gd1983-05-13-nak700s-d3t03.wav
     8:59.58       95216060 B   ---   --   -----    wav  1.0000  gd1983-05-13-nak700s-d3t04.wav
     4:45.22       50325788 B   ---   --   -----    wav  1.0000  gd1983-05-13-nak700s-d3t05.wav
     9:49.57      104033708 B   ---   --   -----    wav  1.0000  gd1983-05-13-nak700s-d3t06.wav
   176:58.20     1873063076 B                            1.0000  (19 files)
Show Checksums
flac-md5
350686d894f131d3d0ee97b14c12dd17 *gd1983-05-13-nak700s-d1t01.flac
42546c8e45263ecf118f7347423dc7ac *gd1983-05-13-nak700s-d1t02.flac
f143185b70fa324ed80cdbe2560e9321 *gd1983-05-13-nak700s-d1t03.flac
ff7bf94dbf3186475b113cbcf05150ff *gd1983-05-13-nak700s-d1t04.flac
cfdb3fb12c34d1953f4412a12292aaa6 *gd1983-05-13-nak700s-d1t05.flac
7b1c4d3b36b379475384747f876135b5 *gd1983-05-13-nak700s-d1t06.flac
cad21353f67552b76e8fa6fe193e5b7f *gd1983-05-13-nak700s-d1t07.flac
b1859a604f10dab3794746741d378d8e *gd1983-05-13-nak700s-d1t08.flac
a4253ade4278b3263c1a733bf48e9704 *gd1983-05-13-nak700s-d2t01.flac
22d5da6231d2c3e7caa41048f907cdaa *gd1983-05-13-nak700s-d2t02.flac
d61843e4e3140353eefa3d0c640953b7 *gd1983-05-13-nak700s-d2t03.flac
53b31f6106d250477f47d867f6da04dd *gd1983-05-13-nak700s-d2t04.flac
7ddbca8ffc1ba938e9c07c29c18f6c5a *gd1983-05-13-nak700s-d2t05.flac
1c279bfe2055597ae733853b9e9f24da *gd1983-05-13-nak700s-d3t01.flac
79af6255aa39fbed198cd6112d6a945d *gd1983-05-13-nak700s-d3t02.flac
3f97a5b8720cce2ecfb7d7c5e2bcc58b *gd1983-05-13-nak700s-d3t03.flac
828b6cb937792f15dd6be8b90dfd3c6a *gd1983-05-13-nak700s-d3t04.flac
ad54985d5b4d98b308f4ad40e3dc2d76 *gd1983-05-13-nak700s-d3t05.flac
de3d539777f57d72ce452eae42f65554 *gd1983-05-13-nak700s-d3t06.flac
ffp
gd1983-05-13-nak700s-d1t01.flac:4d2af9e6344757555545e5485b4da58e
gd1983-05-13-nak700s-d1t02.flac:169d61e57af407056034362314e9e5ad
gd1983-05-13-nak700s-d1t03.flac:216d91337c149a9e27ff807c5dec0e70
gd1983-05-13-nak700s-d1t04.flac:96c4a33770a327da9f8c94d5e5c7862f
gd1983-05-13-nak700s-d1t05.flac:9712a201e396bf7d16dd14aa2629efcc
gd1983-05-13-nak700s-d1t06.flac:c29c70b69e3ad80ca1de2bd6e32d5ba0
gd1983-05-13-nak700s-d1t07.flac:cf81855033fe5a8ae8ceb62c12a52b82
gd1983-05-13-nak700s-d1t08.flac:de8a531eba489c421bb420c01c6c56ce
gd1983-05-13-nak700s-d2t01.flac:0d0961ccc943194e625c1de053a71204
gd1983-05-13-nak700s-d2t02.flac:16579a73eb832a0c0160e3d85dbb664d
gd1983-05-13-nak700s-d2t03.flac:26998c33c983f2e95328e690b3bc1113
gd1983-05-13-nak700s-d2t04.flac:072034ab19fc5d19fd919ae91972c71a
gd1983-05-13-nak700s-d2t05.flac:a7ba727e20de16ff3a444583d5ae9371
gd1983-05-13-nak700s-d3t01.flac:efa83f48001fc803d7c43919044d131d
gd1983-05-13-nak700s-d3t02.flac:116fae857750d80d104b126104825ad4
gd1983-05-13-nak700s-d3t03.flac:7b12a973dda03d7983a6b30358a304c1
gd1983-05-13-nak700s-d3t04.flac:277cf0fdb8f5b76ea00d5ba15960a991
gd1983-05-13-nak700s-d3t05.flac:051947e5ea9d48508ebe44ce46cfdcfd
gd1983-05-13-nak700s-d3t06.flac:6a967292a47bcd14a5610429d1bbbbce

Comments
Add Comment
Other Sources (comments)
FOB Sony Mics > D5 > DAT;... (0) FOB Sony... (1) Set 1 Recording Info: SBD... (1) flac16; 2 Nak 700's... (2) flac16; Recording... (0) flac16; Recording... (0) flac16; Recording... (0)
Date User Comment