Browse Collections Artists Sources   Search Dates

Add Show    List Management    Help


Solar Circus 02/24/91
Club 375, New Brunswick, NJ
Comments Add Comment    Source Collectors    Add to Collection    Add to Want List    History
Source # 96857 Other Sources
Entered by Michael Townshend
Checksums d1
Disc Counts 2 / 2
Media Size
Date Circulated
Date Added
01/10/2009
01/10/2009
Source Summary SBD-> Panasonic SV-255 DAT -> Soundblaster Audigy 2 (44.1K/16 bit) -> Cooledit -> FLAC Frontend -> traders little helper 
Source Information - Download Text | Download Zip
Solar Circus

Club 375 New Brunswick NJ
02/24/91

SBD-> Panasonic SV-255 DAT ->
Soundblaster Audigy 2 (44.1K/16 bit) -> Cooledit ->
FLAC Frontend -> traders little helper


1) tuning
2) Fortune Teller
3) Dead Flowers->
4) Scarlet Begonians
5) Path to Your Heart
6) Festival
7) Think
8) Eyes of the World
9) One More Time
10) You Ain't Going Nowhere
11) Don't Let Go

1) tuning
2) Watchtower
3) I Shot THe Sheriff
4) When Everyone Knows (Bruce Vocal)
5) Good Loving
6) Laced in Silver
7) announcements
8) Jack Straw
9) Tore Up Over You
10) Sugar Magnolia
11) Three Bells

Solar Circus
Mark Diomede Guitar, Vocals
Steve Greene Guitar, Vocals
Ken Golojuch Bass
Bruce Wigdor Keyboards
Brad Hall Drums

Soundboard Live Mixing: Dan Tepper

md5:
ccfed886d53462d7cf4b767742c82b73 *solar 91-02-24d1t01 tuning.flac
a4e53109dea6e402fb80c53e7cd091a5 *solar 91-02-24d1t02 Fortune Teller.flac
c0ed09e7bb7e663d165f6ceea43ab808 *solar 91-02-24d1t03 Dead Flowers.flac
038bcf3c85162f0c1e75e996f72d4d3d *solar 91-02-24d1t04 Scarlet Begonias.flac
60799daceff294eca60596742636fe30 *solar 91-02-24d1t05 Path to Your Heart.flac
07789c27e7f3b10b3141269e9d83a393 *solar 91-02-24d1t06 Festival.flac
5e86dd883d8ff1ed75a0737f04518fb6 *solar 91-02-24d1t07 Think.flac
fb96e6ed35860cc9ebf840a79b8e15e2 *solar 91-02-24d1t08 Eyes of the World.flac
93ccdef9d82c1df5e99891dee8ea223b *solar 91-02-24d1t09 One More Time.flac
16b226d06550bda697cc52264be67537 *solar 91-02-24d1t10 You Aint Going Nowhere.flac
c59eedcc94b3e7baff5da819fd5209a3 *solar 91-02-24d1t11 Don't Let Go.flac
0cd4d4938c9bd45f56db5dfd660f4ebd *solar 91-02-24d2t01 tuning.flac
c355bcc45725cd594af60f60f3aeea8e *solar 91-02-24d2t02 Watchtower.flac
5f05606c370681fa0703b0716bafc72d *solar 91-02-24d2t03 I Shot THe Sheriff.flac
fba6e1183a0b8ff0aacd4b2fe68eeefd *solar 91-02-24d2t04 When Everyone Knows.flac
ba30b6a6f73bfe147e01c87e5f01022c *solar 91-02-24d2t05 Good Loving.flac
cf5b4ba41c8d9ef91bc7fb2b910b59b1 *solar 91-02-24d2t06 Laced in Silver.flac
8a8ee94a15eef89259e9ad06caf255e6 *solar 91-02-24d2t07 announcements.flac
9a390773747fab25fd32e7046de08494 *solar 91-02-24d2t08 Jack Straw.flac
1f62af8ab7f5ae7ec0532dc021d05673 *solar 91-02-24d2t09 Tore Up Over You.flac
c2737b2c876a6c3d84a02768fa33662f *solar 91-02-24d2t10 Sugar Magnolia.flac
d62d80265a4b08a197c449e6d0e9b11b *solar 91-02-24d2t11 Three Bells.flac


ffp:
solar 91-02-24d1t01 tuning.flac:2224fcd68ac5da690484cdf80b66bb97
solar 91-02-24d1t02 Fortune Teller.flac:b1ddddaf18b64c0bb465bfc00dd0f49f
solar 91-02-24d1t03 Dead Flowers.flac:920cb1309cca403e2c4f7fbb65d3332e
solar 91-02-24d1t04 Scarlet Begonias.flac:76ab89fdde289e02da5c3276cfdcdd66
solar 91-02-24d1t05 Path to Your Heart.flac:01e60838e3f057b2eef686051aedd89b
solar 91-02-24d1t06 Festival.flac:714032d4595994bd57d672f372358f84
solar 91-02-24d1t07 Think.flac:076cc840daff1c73edb965462845a878
solar 91-02-24d1t08 Eyes of the World.flac:6680755989f3cdc447a547f0db2b8c12
solar 91-02-24d1t09 One More Time.flac:ce91ad0447e5c729a17c7be7232ab659
solar 91-02-24d1t10 You Aint Going Nowhere.flac:e3350f194b5982b06895c69ef9e832d4
solar 91-02-24d1t11 Don't Let Go.flac:2fb60f0bdcb69efe4dce2199f41cf8a6
solar 91-02-24d2t01 tuning.flac:fcead62c84144bcf1768799fba915caf
solar 91-02-24d2t02 Watchtower.flac:dfa58d2acc7a52996c4c4d2d376e9461
solar 91-02-24d2t03 I Shot THe Sheriff.flac:7159dde0578506bed9554a37b33da780
solar 91-02-24d2t04 When Everyone Knows.flac:4ace9cbf9ec6a938698d9fe69c735e53
solar 91-02-24d2t05 Good Loving.flac:379bdc7acf781aa710b9838be866453d
solar 91-02-24d2t06 Laced in Silver.flac:bd250315eeb5a18b5c3f2028ed0c0993
solar 91-02-24d2t07 announcements.flac:4d0cfc2e2aaab404103f68fc0eb509b8
solar 91-02-24d2t08 Jack Straw.flac:164270f832c570d2fe68ff1be2078c87
solar 91-02-24d2t09 Tore Up Over You.flac:730b6c57a5d6b94c6000f27f8bc9fbca
solar 91-02-24d2t10 Sugar Magnolia.flac:ebcdb2b02675b4a750aa09412de10a67
solar 91-02-24d2t11 Three Bells.flac:57ecc4701ca7d42900d38d173289515c


shntool:
shntool 3.0.4
Copyright (C) 2000-2007 Jason Jordan

    length     expanded size    cdr  WAVE problems  fmt   ratio  filename
     1:32.45       16334684 B   ---   --   ---xx   flac  0.3834  solar 91-02-24d1t01 tuning.flac
     9:10.39       97111772 B   ---   --   ---xx   flac  0.5174  solar 91-02-24d1t02 Fortune Teller.flac
     4:12.36       44537516 B   ---   --   ---xx   flac  0.5314  solar 91-02-24d1t03 Dead Flowers.flac
     9:42.00      102664844 B   ---   --   ---xx   flac  0.5583  solar 91-02-24d1t04 Scarlet Begonias.flac
     5:49.00       61563644 B   ---   --   ---xx   flac  0.5743  solar 91-02-24d1t05 Path to Your Heart.flac
     5:06.30       54049004 B   ---   --   ---xx   flac  0.5603  solar 91-02-24d1t06 Festival.flac
     5:31.23       58442540 B   ---   --   ---xx   flac  0.5130  solar 91-02-24d1t07 Think.flac
     9:43.56      102972956 B   ---   --   ---xx   flac  0.5318  solar 91-02-24d1t08 Eyes of the World.flac
     6:02.41       63953276 B   ---   --   ---xx   flac  0.5625  solar 91-02-24d1t09 One More Time.flac
     4:17.00       45334844 B   ---   --   ---xx   flac  0.5094  solar 91-02-24d1t10 You Aint Going Nowhere.flac
     9:19.12       98635868 B   ---   --   ---xx   flac  0.5539  solar 91-02-24d1t11 Don't Let Go.flac
     1:58.50       20932844 B   ---   --   ---xx   flac  0.4226  solar 91-02-24d2t01 tuning.flac
     7:38.60       80932364 B   ---   --   ---xx   flac  0.5634  solar 91-02-24d2t02 Watchtower.flac
     9:23.53       99437900 B   ---   --   ---xx   flac  0.5507  solar 91-02-24d2t03 I Shot THe Sheriff.flac
     3:28.62       36837068 B   ---   --   ---xx   flac  0.5780  solar 91-02-24d2t04 When Everyone Knows.flac
     6:10.21       65317436 B   ---   --   ---xx   flac  0.5580  solar 91-02-24d2t05 Good Loving.flac
    11:23.47      120591788 B   ---   --   ---xx   flac  0.5829  solar 91-02-24d2t06 Laced in Silver.flac
     1:08.73       12166940 B   ---   --   ---xx   flac  0.3701  solar 91-02-24d2t07 announcements.flac
     8:16.04       87503852 B   ---   --   ---xx   flac  0.5436  solar 91-02-24d2t08 Jack Straw.flac
     6:27.33       68344460 B   ---   --   ---xx   flac  0.5156  solar 91-02-24d2t09 Tore Up Over You.flac
     8:46.33       92864060 B   ---   --   ---xx   flac  0.5751  solar 91-02-24d2t10 Sugar Magnolia.flac
     4:17.15       45370124 B   ---   --   ---xx   flac  0.5301  solar 91-02-24d2t11 Three Bells.flac
   139:26.58     1475899784 B                            0.5445  (22 files)

Show Checksums
d1
ccfed886d53462d7cf4b767742c82b73 *solar 91-02-24d1t01 tuning.flac
a4e53109dea6e402fb80c53e7cd091a5 *solar 91-02-24d1t02 Fortune Teller.flac
c0ed09e7bb7e663d165f6ceea43ab808 *solar 91-02-24d1t03 Dead Flowers.flac
038bcf3c85162f0c1e75e996f72d4d3d *solar 91-02-24d1t04 Scarlet Begonias.flac
60799daceff294eca60596742636fe30 *solar 91-02-24d1t05 Path to Your Heart.flac
07789c27e7f3b10b3141269e9d83a393 *solar 91-02-24d1t06 Festival.flac
5e86dd883d8ff1ed75a0737f04518fb6 *solar 91-02-24d1t07 Think.flac
fb96e6ed35860cc9ebf840a79b8e15e2 *solar 91-02-24d1t08 Eyes of the World.flac
93ccdef9d82c1df5e99891dee8ea223b *solar 91-02-24d1t09 One More Time.flac
16b226d06550bda697cc52264be67537 *solar 91-02-24d1t10 You Aint Going Nowhere.flac
c59eedcc94b3e7baff5da819fd5209a3 *solar 91-02-24d1t11 Don't Let Go.flac
0cd4d4938c9bd45f56db5dfd660f4ebd *solar 91-02-24d2t01 tuning.flac
c355bcc45725cd594af60f60f3aeea8e *solar 91-02-24d2t02 Watchtower.flac
5f05606c370681fa0703b0716bafc72d *solar 91-02-24d2t03 I Shot THe Sheriff.flac
fba6e1183a0b8ff0aacd4b2fe68eeefd *solar 91-02-24d2t04 When Everyone Knows.flac
ba30b6a6f73bfe147e01c87e5f01022c *solar 91-02-24d2t05 Good Loving.flac
cf5b4ba41c8d9ef91bc7fb2b910b59b1 *solar 91-02-24d2t06 Laced in Silver.flac
8a8ee94a15eef89259e9ad06caf255e6 *solar 91-02-24d2t07 announcements.flac
9a390773747fab25fd32e7046de08494 *solar 91-02-24d2t08 Jack Straw.flac
1f62af8ab7f5ae7ec0532dc021d05673 *solar 91-02-24d2t09 Tore Up Over You.flac
c2737b2c876a6c3d84a02768fa33662f *solar 91-02-24d2t10 Sugar Magnolia.flac
d62d80265a4b08a197c449e6d0e9b11b *solar 91-02-24d2t11 Three Bells.flac

Comments
Add Comment
Date User Comment