Browse Collections Artists Sources   Search Dates

Add Show    List Management    Help


Grateful Dead 10/16/89
Meadowlands Arena, East Rutherford, NJ
Comments Add Comment    Source Collectors    Add to Collection    Add to Want List    History
Source # 96899 Other Sources
Entered by dr.unclear
Checksums ffp , flac-md5
Disc Counts 2 / 2
Media Size
Date Circulated
Date Added
01/14/2009
01/14/2009
Source Summary flac16; matrix of DSBD: shnid=446 and AUD: shnid=32131 (Set 1) and DAUD: shnid=34658 (Set 2) by hansokolow using ProTools 
  Archive
Source Information - Download Text | Download Zip
Grateful Dead
Monday, October 16th, 1989
Meadowlands Arena
East Rutherford, NJ

        cd1  -  set 1
1)  Picasso Moon->
2)  Mississippi Half-Step Uptown Toodeloo
3)  Feel Like A Stranger
4)  Good Times Blues
5)  Built To Last
6)  Memphis Blues Again
7)  Let It Grow->
8)  Deal

        cd2  -  set 2
1)  Dark Star->
2)  Playin' In The Band->
3)  Uncle John's Band->
4)  Playin' In The Band->
5)  Drums->
6)  Space->
7)  I Will Take You Home->
8)  I Need A Miracle->
9)  Dark Star->
10)  Attics Of My Life->
11)  Playin' Reprise->
12) (crowd/tuning)
13)    e:  And We Bid You Goodnight

*Bob Weir's 42nd Birthday

-----------------------------------

This is a matrix recording, done by hansokolow in ProTools, of the following sources:

SBD: shnid=446
DSBD>DAT>WAV>CD-R

-----------------------------------

AUD: shnid=32131
set 1 (from the archive):
unknown audience recording: CD > EAC > FLAC

DAUD: shnid=34658
set 2: Digital FOB Audience: FOB Schoeps CMC34 Cardiod>Panasonic SV250(?)>DAT

DAT from collection of Todd Evans - [email protected]
DAT > TASCAM DA-20 > M-Audio FireWire solo > Soundforge 8.0 wav @48K/16b (WinXP)> 44.1K/16b Audacity 1.2.3 > Tracks cut with shntool 2.0.3 > Flac 1.1.2 compression level 8 on FC3 Linux by triportweek

-----------------------------------

My Notes: set 1 sounds quite good, considering the AUD is analog, and had to be slowed down, song by song, to match the DSBD.  Set two sounds fantastic, and the show magically fist on two discs, even with crowd noise.

The previous night had been my second Dead show, and stupidly, we left town without even trying to get tickets to this night.

-Tano ([email protected])


    length     expanded size    cdr  WAVE problems  fmt   ratio  filename
     7:41.35       81402764 B   ---   --   ---xx  gd89-10-16d1t01.flac
     6:44.35       71347964 B   ---   --   ---xx  gd89-10-16d1t02.flac
     7:37.11       80640716 B   ---   --   ---xx  gd89-10-16d1t03.flac
     9:19.41       98704076 B   ---   --   ---xx  gd89-10-16d1t04.flac
     5:30.37       58299068 B   ---   --   ---xx  gd89-10-16d1t05.flac
    11:27.22      121238588 B   ---   --   ---xx  gd89-10-16d1t06.flac
    12:02.39      127452572 B   ---   --   ---xx  gd89-10-16d1t07.flac
     8:35.07       90862508 B   ---   --   ---xx  gd89-10-16d1t08.flac
    13:03.22      138172988 B   ---   --   ---xx  gd89-10-16d2t01.flac
     8:03.38       85290620 B   ---   --   ---xx  gd89-10-16d2t02.flac
     9:31.58      100860860 B   ---   --   ---xx  gd89-10-16d2t03.flac
     9:15.15       97937324 B   ---   --   ---xx  gd89-10-16d2t04.flac
     6:07.08       64757660 B   ---   --   ---xx  gd89-10-16d2t05.flac
     6:14.00       65973644 B   ---   --   ---xx  gd89-10-16d2t06.flac
     4:23.35       46475564 B   ---   --   ---xx  gd89-10-16d2t07.flac
     4:03.02       42869948 B   ---   --   ---xx  gd89-10-16d2t08.flac
     5:22.51       56920796 B   ---   --   ---xx  gd89-10-16d2t09.flac
     4:46.57       50584508 B   ---   --   ---xx  gd89-10-16d2t10.flac
     3:31.65       37373324 B   ---   --   ---xx  gd89-10-16d2t11.flac
     1:41.47       17926988 B   ---   --   ---xx  gd89-10-16d2t12.flac
     3:34.07       37766108 B   ---   --   ---xx  gd89-10-16d2t13.flac
   148:36.32     1572858588 B                            0.5173  (21 files)
Show Checksums
ffp
gd89-10-16d1t01.flac:c463cd2aa2b80dfe5432c4605e372412
gd89-10-16d1t02.flac:89e2b2505b66a741cb263d192b4885da
gd89-10-16d1t03.flac:e591119bda267e0b402a9bd3f06b13dd
gd89-10-16d1t04.flac:66e9ef917ba45cc951c2444d62fed8f7
gd89-10-16d1t05.flac:6068b27a19249ccc82177f19d0b1df3c
gd89-10-16d1t06.flac:2ddde92b9eb4cbb4bb6d4d07d3078e33
gd89-10-16d1t07.flac:c9e8dc7dd040b7f513b1e1703984bd21
gd89-10-16d1t08.flac:ee648eabfe9498ed0c79ce5d2570dc00
gd89-10-16d2t01.flac:64bab2f575cd112b23a39f1f317f7382
gd89-10-16d2t02.flac:a4a79784bcb10cd647a7d54752a4f2b3
gd89-10-16d2t03.flac:3945186a044581f8f4a0f049a36f896b
gd89-10-16d2t04.flac:4472526fe72017910e553c4dec72356b
gd89-10-16d2t05.flac:3a2d6967b9fbd206e97183c2678ed045
gd89-10-16d2t06.flac:4a254614f8b757609ca37d78fdccd643
gd89-10-16d2t07.flac:8b9f53e248c9ef35e16ff81dbd11f3c4
gd89-10-16d2t08.flac:fc060d2728f93dde34678ed2c8dc201c
gd89-10-16d2t09.flac:1cb97a4015e3fec7a17d37590af0f3d6
gd89-10-16d2t10.flac:78e23fbea1d16df1150dcfd5773eac94
gd89-10-16d2t11.flac:04958f8212818e8e488b0abe04572513
gd89-10-16d2t12.flac:f527ce516fa2a4ec54b988c227cf1836
gd89-10-16d2t13.flac:b8b43d070ce61705b3d8698a7a611256
flac-md5
2b4637de9414728c673d334e02729cdd *gd89-10-16d1t01.flac
61a0fb0e750283c84c95b0c561b1a1df *gd89-10-16d1t02.flac
634c83ca3da8e829c054e67f1dbdad1c *gd89-10-16d1t03.flac
0d7210a2eec824ff0d6112ddadba5d58 *gd89-10-16d1t04.flac
28610483ceb5337a1c1aedd5dc5b8876 *gd89-10-16d1t05.flac
5b85d374bea7c352cd5c8caae026a883 *gd89-10-16d1t06.flac
d9fb657dccff4a6f0d08af94a98778a2 *gd89-10-16d1t07.flac
19a9c5fe9de884ab4559ed7e13d068b6 *gd89-10-16d1t08.flac
b1c6f1fffd07ce7b46c7e54d7fa34b94 *gd89-10-16d2t01.flac
6eea593bd0bfb1222c471716ae877bc5 *gd89-10-16d2t02.flac
615d737ac60c9450b4cd77f50d5a26c8 *gd89-10-16d2t03.flac
a541ae62e3184ca2571575419064fcc1 *gd89-10-16d2t04.flac
d0192298b7e7a36ad10664f4d5c4dadb *gd89-10-16d2t05.flac
c0b44b20da87bcc615f107831e4a1e89 *gd89-10-16d2t06.flac
bb76ed916217620a67379e769de32dee *gd89-10-16d2t07.flac
b0bc26c39030caecd8079c1f94f4db48 *gd89-10-16d2t08.flac
66ae05daaad4da23fe8806a695702f6a *gd89-10-16d2t09.flac
06fbb9cbde63abe6b004393362e3505f *gd89-10-16d2t10.flac
27f3600a5a24e877580798f6bec0d303 *gd89-10-16d2t11.flac
4c77575f35cf7077e3f0e7b7a2370711 *gd89-10-16d2t12.flac
8daae8ee0d40d109b35a74c008c9889a *gd89-10-16d2t13.flac

Comments
Add Comment
Other Sources (comments)
source update: DSBD> DAT>... (9) unknown audience recording... (0) flac16; Set 2 Only -... (1) flac16/48kHz;... (0) flac16; Source:... (0) flac16; Taper: M.... (0) flac24; Master... (0) flac16; Master... (0) flac24; Recording... (0) flac16; Recording... (0) flac16/48kHz; Source... (0)
Date User Comment