Browse Collections Artists Sources   Search Dates

Add Show    List Management    Help


Grateful Dead 05/04/80
Baltimore Civic Center, Baltimore, MD
Comments Add Comment    Source Collectors    Add to Collection    Add to Want List    History
Source # 96910 Other Sources
Entered by Steve Swartz
Checksums ffp , flac-md5
Disc Counts 2 / 3
Media Size
Date Circulated
Date Added
01/15/2009
01/15/2009
Source Summary flac16; MAC = 2 x Maxell XLII C90; 2 x Nakamichi CM700 => Sony TC-D5 >> MAC >> Nakamichi DR-1 => Grace Design Lunatec V3 >> Korg MR-1000 >> DSF [1-bit 5 -6448 MHz Stereo] >> Korg MR-1000 => Korg AudioGate >> WAV [24/96] Taped By: Barry Glassberg Transfer By: Adam Egert Mastering By: Derek McCabe MOTB0037 (This source fixes the flaws in the previous MOTB seed.) 
  Archive
Source Information - Download Text | Download Zip
MOTB Release: 0037 16/44.1
Release Date: 2009-01-15
Band: Grateful Dead
Date: 1980-05-04 (Sunday)
Venue: Baltimore Civic Center
Location: Baltimore, MD
Analog Audience Source: FOB Master Cassettes (MAC)
Medium Stock Brands: MAC = 3 x Maxell XLII C90
Analog Lineage: 2 x Nakamichi CM700 => Sony TC-D5M >> MAC
Analog Sound Preservation: MAC >> Nakamichi DR-1 => Grace Design Lunatec V3 >> Korg MR-1000 >> DSF [1-bit 5.6448 MHz Stereo] >> Korg MR-1000 => Korg AudioGate >> WAV [24/96]
Taped By: Barry Glassberg
Transfer By: Adam Egert
Mastering By: Derek McCabe


Set1
d1t01 - Mississippi Half-Step >
d1t02 - Franklin's Tower >
d1t03 - Feel Like A Stranger
d1t04 - Billy for President Rap
d1t05 - Althea
d1t06 - El Paso
d1t07 - Easy To Love You
d1t08 - Brown Eyed Women
d1t09 - It's All Over Now
d1t10 - Don't Ease Me In
d1t11 - //Promised Land

Set 2
d2t01 - Scarlet Begonias >
d2t02 - Fire on the Mountain
d2t03 - Samson and Delila
d2t04 - Ship Of Fools
d3t01 - Playin' in the Band >
d3t02 - Drums >
d3t03 - Space >
d3t04 - Black Peter >
d3t05 - Sugar Magnolia

Encore
d3t06 - U.S. Blues

Notes:

shntool:
    length     expanded size    cdr  WAVE problems  fmt   ratio  filename
    12:04.13      127744220 B   ---   --   ---xx   flac  0.5851  gd1980-05-04.aud.glassberg.motb.0037.d1t01.flac
    11:00.59      116562812 B   ---   --   ---xx   flac  0.6034  gd1980-05-04.aud.glassberg.motb.0037.d1t02.flac
     9:15.02       97906748 B   ---   --   ---xx   flac  0.5944  gd1980-05-04.aud.glassberg.motb.0037.d1t03.flac
     2:21.72       25041788 B   ---   --   ---xx   flac  0.5341  gd1980-05-04.aud.glassberg.motb.0037.d1t04.flac
     8:59.27       95143148 B   ---   --   ---xx   flac  0.5635  gd1980-05-04.aud.glassberg.motb.0037.d1t05.flac
     6:21.49       67323692 B   ---   --   ---xx   flac  0.5606  gd1980-05-04.aud.glassberg.motb.0037.d1t06.flac
     5:08.08       54350060 B   ---   --   ---xx   flac  0.5648  gd1980-05-04.aud.glassberg.motb.0037.d1t07.flac
     5:23.52       57099548 B   ---   --   ---xx   flac  0.5940  gd1980-05-04.aud.glassberg.motb.0037.d1t08.flac
    11:40.19      123524732 B   ---   --   ---xx   flac  0.5891  gd1980-05-04.aud.glassberg.motb.0037.d1t09.flac
     3:22.19       35677532 B   ---   --   ---xx   flac  0.6133  gd1980-05-04.aud.glassberg.motb.0037.d1t10.flac
     4:37.20       48909884 B   ---   --   ---xx   flac  0.6314  gd1980-05-04.aud.glassberg.motb.0037.d1t11.flac
     8:01.27       84911948 B   ---   --   ---xx   flac  0.5996  gd1980-05-04.aud.glassberg.motb.0037.d2t01.flac
    10:12.50      108074444 B   ---   --   ---xx   flac  0.6200  gd1980-05-04.aud.glassberg.motb.0037.d2t02.flac
     9:58.63      105635420 B   ---   --   ---xx   flac  0.5978  gd1980-05-04.aud.glassberg.motb.0037.d2t03.flac
    10:04.30      106616204 B   ---   --   ---xx   flac  0.5348  gd1980-05-04.aud.glassberg.motb.0037.d2t04.flac
    16:00.05      169355804 B   ---   --   ---xx   flac  0.5635  gd1980-05-04.aud.glassberg.motb.0037.d3t01.flac
     8:18.45       87953084 B   ---   --   ---xx   flac  0.5197  gd1980-05-04.aud.glassberg.motb.0037.d3t02.flac
     2:16.36       24075116 B   ---   --   ---xx   flac  0.5202  gd1980-05-04.aud.glassberg.motb.0037.d3t03.flac
    10:12.71      108123836 B   ---   --   ---xx   flac  0.5532  gd1980-05-04.aud.glassberg.motb.0037.d3t04.flac
     8:50.73       93663740 B   ---   --   ---xx   flac  0.6352  gd1980-05-04.aud.glassberg.motb.0037.d3t05.flac
     5:45.29       60926252 B   ---   --   ---xx   flac  0.6175  gd1980-05-04.aud.glassberg.motb.0037.d3t06.flac
   169:56.19     1798620012 B                            0.5820  (21 files)

No errors occured.
Show Checksums
ffp
gd1980-05-04.aud.glassberg.motb.0037.d1t01.flac:d29013ea8be217b8c88eeadb60513a2e
gd1980-05-04.aud.glassberg.motb.0037.d1t02.flac:8498a15c79aa73759e3e8d674b47cd22
gd1980-05-04.aud.glassberg.motb.0037.d1t03.flac:ccf52f83413fb70ea3a826de18016f9e
gd1980-05-04.aud.glassberg.motb.0037.d1t04.flac:184ea2357b846f24e73b9420496058fe
gd1980-05-04.aud.glassberg.motb.0037.d1t05.flac:d090704762808a576808c6c9104fda35
gd1980-05-04.aud.glassberg.motb.0037.d1t06.flac:0f0264ffce20af404f0d70b093471972
gd1980-05-04.aud.glassberg.motb.0037.d1t07.flac:4d73f210001b77e5738dce90cf160233
gd1980-05-04.aud.glassberg.motb.0037.d1t08.flac:48ef27a2ab22d8d72c46d3f8bf881263
gd1980-05-04.aud.glassberg.motb.0037.d1t09.flac:d72b406ee0b9b7b0f5091e12fd48ffdb
gd1980-05-04.aud.glassberg.motb.0037.d1t10.flac:64154d7ff5a77abd3f7e47c422e7dccb
gd1980-05-04.aud.glassberg.motb.0037.d1t11.flac:a806ed465f84ebcbcf172907e2b1f94b
gd1980-05-04.aud.glassberg.motb.0037.d2t01.flac:a7eae08ed6b9b8fb53dfe336c9af6e69
gd1980-05-04.aud.glassberg.motb.0037.d2t02.flac:d558e5332376a7b0edd7e6693f12b8ee
gd1980-05-04.aud.glassberg.motb.0037.d2t03.flac:baa6eea6ec95d0c7c4c3ab164a20a26d
gd1980-05-04.aud.glassberg.motb.0037.d2t04.flac:1a755a1ebb0b80464f34c8429e1071fc
gd1980-05-04.aud.glassberg.motb.0037.d3t01.flac:f8f69030497d0a4574ffeb78a0ea101c
gd1980-05-04.aud.glassberg.motb.0037.d3t02.flac:4f9b404b8079ea10b8ec9d266301ee6d
gd1980-05-04.aud.glassberg.motb.0037.d3t03.flac:91654368da72dc4b68af9159d06cefa6
gd1980-05-04.aud.glassberg.motb.0037.d3t04.flac:af35bacc482986bfa9f87288f233e512
gd1980-05-04.aud.glassberg.motb.0037.d3t05.flac:bcb92f5ee44e49ad9a588d5cda22ea80
gd1980-05-04.aud.glassberg.motb.0037.d3t06.flac:878abd01b721472c6d2155c0a8fbcc07
flac-md5
ea5d2fa5422067417eefc71f7df6c24d *gd1980-05-04.aud.glassberg.motb.0037.d1t01.flac
fed449f129029cdaeae348f719ac3d09 *gd1980-05-04.aud.glassberg.motb.0037.d1t02.flac
37a3a008f423f2ffeb9a12102b6ff917 *gd1980-05-04.aud.glassberg.motb.0037.d1t03.flac
d629ae1fd2156cc808ec3f18171c030d *gd1980-05-04.aud.glassberg.motb.0037.d1t04.flac
e3d43c31ad73c75f40ca4c7158994f7b *gd1980-05-04.aud.glassberg.motb.0037.d1t05.flac
d50edd3b04ca62e065bb164b555149d5 *gd1980-05-04.aud.glassberg.motb.0037.d1t06.flac
7f4a3bb8148b562bb128cd2bbe420931 *gd1980-05-04.aud.glassberg.motb.0037.d1t07.flac
9397d9b3de4151d29bb4cd8aa4c3ab43 *gd1980-05-04.aud.glassberg.motb.0037.d1t08.flac
98d51a94ea033ab0c7e761cb0f78fd92 *gd1980-05-04.aud.glassberg.motb.0037.d1t09.flac
4f71093ececaf781b11ea3ebe24c147d *gd1980-05-04.aud.glassberg.motb.0037.d1t10.flac
87a93e20b9f7fb288f2a06a1451597cb *gd1980-05-04.aud.glassberg.motb.0037.d1t11.flac
a88f04e30db5c7834c0999850c4795d0 *gd1980-05-04.aud.glassberg.motb.0037.d2t01.flac
9cd63295d6caa701c19300e1cf07a56e *gd1980-05-04.aud.glassberg.motb.0037.d2t02.flac
cc5900654d27350563200fa39a2b9a6d *gd1980-05-04.aud.glassberg.motb.0037.d2t03.flac
93fc6debfc14aff4caf0d2dfb3a66147 *gd1980-05-04.aud.glassberg.motb.0037.d2t04.flac
622d309024ee1943eab47fce6d453d9e *gd1980-05-04.aud.glassberg.motb.0037.d3t01.flac
54b71cab67b1fc5841f410b90cc8f328 *gd1980-05-04.aud.glassberg.motb.0037.d3t02.flac
1a048e9f85854a39306136f3aceae45a *gd1980-05-04.aud.glassberg.motb.0037.d3t03.flac
00ed6ad44ee9d4dc4239b8c66c585979 *gd1980-05-04.aud.glassberg.motb.0037.d3t04.flac
f89d0cbce08c56a2154688e448c8f47b *gd1980-05-04.aud.glassberg.motb.0037.d3t05.flac
1f49667c0aa1a05ee41bf78917e76298 *gd1980-05-04.aud.glassberg.motb.0037.d3t06.flac

Comments
Add Comment
Other Sources (comments)
Nak 300's>MC>DAT>CD; via... (1) flac16; MAC = 2 x... (1) flac24; MAC = 2 x... (1) flac24; MAC = 2 x... (0) flac16; Recorded by... (0) flac16; Nakamichi... (0) flac24; Nakamichi... (0) flac24; 2 AKG-1000E>... (2) flac16; Recorded By... (0)
Date User Comment