Browse Collections Artists Sources   Search Dates

Add Show    List Management    Help


Zero 05/06/98
Coach House, San Juan Capistrano, CA
Comments Add Comment    Source Collectors    Add to Collection    Add to Want List    History
Source # 96916 Other Sources
Entered by Charlie Miller
Checksums md5 , ffp
Disc Counts 2 / 2
Media Size
Date Circulated
Date Added
1/15/09
01/15/2009
Source Summary flac16;Recording Info:(Stage) Microtech-Gefell M300 -> Aphex 107 -> Phillips ISP 5022 -> Dat (Tascam DA-P1) -> Sound Forge -> CD (SHN); Transfer Info: CD (SHN) -> Samplitude Professional v10.2 -> FLAC; Recorded By Brian Abramson; Mastered By Charlie Miller 
Source Information - Download Text | Download Zip
Zero - May 6, 1998
Coach House - San Juan Capistrano, CA

Recording Info:
(Stage) Microtech-Gefell M300 -> Aphex 107 -> Phillips ISP 5022 ->
Dat (Tascam DA-P1) -> Sound Forge -> CD (SHN)

Transfer Info:
CD (SHN) -> Samplitude Professional v10.2 -> FLAC
(2 Discs Audio / 2 Discs FLAC)

Recorded By Brian Abramson
Mastered By Charlie Miller
[email protected]
January 15, 2009

Set 1:
d1t01 - Tangled Hangers
d1t02 - Roll Me Over
d1t03 - Friday's Child
d1t04 - Papa Was A Rolling Stone
d1t05 - Theme From Nancy Germany
d1t06 - Ermaline

Set 2:
d2t01 - Like A Rolling Stone ->
d2t02 - Can't Keep A Good Man Down
d2t03 - Anorexia
d2t04 - Sun Sun Sun
d2t05 - Catalina

Encore:
d2t06 - Use Me Up ->
d2t07 - Feeling Alright ->
d2t08 - Use Me Up ->
d2t09 - Chameleon


SHNTOOL OUTPUT:
    length     expanded size   cdr  WAVE problems filename
    15:50.00      167580044    ---   --   -----   zero1998-05-06d1t01.wav
     7:23.54       78272252    ---   --   -----   zero1998-05-06d1t02.wav
     9:35.06      101444156    ---   --   -----   zero1998-05-06d1t03.wav
    11:34.41      122518076    ---   --   -----   zero1998-05-06d1t04.wav
    11:47.69      124877132    ---   --   -----   zero1998-05-06d1t05.wav
     8:13.55       87094604    ---   --   -----   zero1998-05-06d1t06.wav
    16:59.63      179899820    ---   --   -----   zero1998-05-06d2t01.wav
    10:02.03      106199900    ---   --   -----   zero1998-05-06d2t02.wav
    10:08.16      107288876    ---   --   -----   zero1998-05-06d2t03.wav
    14:43.63      155909420    ---   --   -----   zero1998-05-06d2t04.wav
    13:04.16      138335276    ---   --   -----   zero1998-05-06d2t05.wav
     7:41.64       81470972    ---   --   -----   zero1998-05-06d2t06.wav
     1:50.15       19439324    ---   --   -----   zero1998-05-06d2t07.wav
     0:31.18        5510780    ---   --   -----   zero1998-05-06d2t08.wav
     2:55.73       31041740    ---   --   -----   zero1998-05-06d2t09.wav
   142:22.31     1506882372 B                     (totals for 15 files)
Show Checksums
md5
541898fbe9c54145ed19865a575811bd *zero1998-05-06d1t01.flac
fb05b36868cc748889409d1974635746 *zero1998-05-06d1t02.flac
98ff7c129401a72f193be5737cf5f2b6 *zero1998-05-06d1t03.flac
6da1b71657a99595e58939b6914064ec *zero1998-05-06d1t04.flac
d96ed97fd1c072513bbcad2e4e3b6c33 *zero1998-05-06d1t05.flac
6c168779fcb40013b6127b71d1e02f22 *zero1998-05-06d1t06.flac
aa03de9ee4726e5a576e28a25835ac82 *zero1998-05-06d2t01.flac
703fc9c0d1a9d55aca4883da47bf0cd2 *zero1998-05-06d2t02.flac
513eed504fb39e48d21a2e8e649f2738 *zero1998-05-06d2t03.flac
72ff87fd49c39573b8b6e4cde811dc00 *zero1998-05-06d2t04.flac
7d0488ffd598c43f43b4d2a64ebc54d2 *zero1998-05-06d2t05.flac
8b29b75dd16ee5d19ad209e1c86b828a *zero1998-05-06d2t06.flac
d067b395431d9778397e0a65c3622b08 *zero1998-05-06d2t07.flac
bf466b243593dd3affd72bc2244bd96c *zero1998-05-06d2t08.flac
66a6c08f2a22aadaf058a4173e1e5ac0 *zero1998-05-06d2t09.flac
ffp
zero1998-05-06d1t01.flac:0d6ee3e3a8a72c84c5502e79ffbed001
zero1998-05-06d1t02.flac:ec2842a5fba2e5e6c34246b1016cb640
zero1998-05-06d1t03.flac:8bede513a25654609215728fad696f9b
zero1998-05-06d1t04.flac:c851ee416bc31237825f8b6b1544383c
zero1998-05-06d1t05.flac:f24497e7b237421acf727b85c2db8a69
zero1998-05-06d1t06.flac:8fdf76f46ece2db6be6fcd34a62a45c7
zero1998-05-06d2t01.flac:11328715bd160f4eeb858638fdc60fec
zero1998-05-06d2t02.flac:ed4c361281cfc0b8913ccd831dccf373
zero1998-05-06d2t03.flac:dd875e7e8261cb84520bc77ceaa21da1
zero1998-05-06d2t04.flac:9578cd21143e792e8d799c3b15e9598a
zero1998-05-06d2t05.flac:c7bc27548c007a02d4aeeb2a477e7ac9
zero1998-05-06d2t06.flac:fc4750e441b24abaf9ce83a73338efa1
zero1998-05-06d2t07.flac:e6fa53617026c98a1dd565f2bc3b963a
zero1998-05-06d2t08.flac:140ad1d6a5ff3e21233fa66f1e8bbfe7
zero1998-05-06d2t09.flac:d26cb7eeb85bdd22c7474102f6fa5437

Comments
Add Comment
Other Sources (comments)
(FOB) Schoeps CMC6/MK41 >... (0) Source: FOB Schoeps mk41 >... (0)
Date User Comment