Browse Collections Artists Sources   Search Dates

Add Show    List Management    Help


Zero 05/07/98
Belly Up Tavern, Solano Beach, CA
Comments Add Comment    Source Collectors    Add to Collection    Add to Want List    History
Source # 96917 Other Sources
Entered by Charlie Miller
Checksums ffp , md5
Disc Counts 2 / 2
Media Size
Date Circulated
Date Added
1/15/09
01/15/2009
Source Summary flac16;Recording Info:(Stage) Microtech-Gefell M300 -> Aphex 107 -> Phillips ISP 5022 -> Dat (Tascam DA-P1) -> Sound Forge -> CD (SHN); Transfer Info: CD (SHN) -> Samplitude Professional v10.2 -> FLAC; Recorded By Brian Abramson; Mastered By Charlie Miller 
Source Information - Download Text | Download Zip
Zero - May 7, 1998
Belly Up Tavern - Solana Beach, CA

Recording Info:
(Stage) Microtech-Gefell M300 -> Aphex 107 -> Phillips ISP 5022 ->
Dat (Tascam DA-P1) -> Sound Forge -> CD (SHN)

Transfer Info:
CD (SHN) -> Samplitude Professional v10.2 -> FLAC
(2 Discs Audio / 2 Discs FLAC)

Recorded By Brian Abramson
Mastered By Charlie Miller
[email protected]
January 15, 2009

Notes:
-- Encore moved to end of Set 1

Set 1:
d1t01 - Pits Of Thunder
d1t02 - Highway 61 Revisited
d1t03 - Chance In A Million
d1t04 - Listen Here
d1t05 - Six Days On The Road
d1t06 - Mr. Broadway
d1t07 - Home On The Range

Set 2:
d2t01 - Cole's Law
d2t02 - Golden Road
d2t03 - Like A Rolling Stone ->
d2t04 - Berm
d2t05 - Out In The Woods
d2t06 - Gregg's Eggs

Encore:
d1t08 - Mercury Blues


SHNTOOL OUTPUT:
    length     expanded size   cdr  WAVE problems filename
    13:05.47      138584588    ---   --   -----   zero1998-05-07d1t01.wav
     8:14.46       87249836    ---   --   -----   zero1998-05-07d1t02.wav
     7:07.72       75492188    ---   --   -----   zero1998-05-07d1t03.wav
    12:50.06      135842156    ---   --   -----   zero1998-05-07d1t04.wav
     5:08.04       54340652    ---   --   -----   zero1998-05-07d1t05.wav
     9:26.17       99882428    ---   --   -----   zero1998-05-07d1t06.wav
    13:56.55      147599804    ---   --   -----   zero1998-05-07d1t07.wav
     8:35.17       90886028    ---   --   -----   zero1998-05-07d1t08.wav
    11:43.08      124028060    ---   --   -----   zero1998-05-07d2t01.wav
    11:04.09      117150812    ---   --   -----   zero1998-05-07d2t02.wav
    13:10.05      139367804    ---   --   -----   zero1998-05-07d2t03.wav
    12:08.00      128419244    ---   --   -----   zero1998-05-07d2t04.wav
    13:44.67      145511228    ---   --   -----   zero1998-05-07d2t05.wav
    17:49.37      188658668    ---   --   -----   zero1998-05-07d2t06.wav
   158:04.15     1673013496 B                     (totals for 14 files)
Show Checksums
ffp
zero1998-05-07d1t01.flac:a1411c74e39ed1e77c206236ec523734
zero1998-05-07d1t02.flac:333f0bcb05dc998cce599f709834f3e3
zero1998-05-07d1t03.flac:3df05de5bb556a6959bc1a24cdb2ef5f
zero1998-05-07d1t04.flac:097d7ee21504f444cdaf0175227d46dc
zero1998-05-07d1t05.flac:66981617370204d8b1d42aa01d3707c5
zero1998-05-07d1t06.flac:81a1dacc18a3153d3434a8706db1cb8d
zero1998-05-07d1t07.flac:e52a5aeb85c77573014a09111aa91b39
zero1998-05-07d1t08.flac:896debad9e8da52a4c8944864c3c2a44
zero1998-05-07d2t01.flac:0f0f33a64f773573591bcb9359a4d2da
zero1998-05-07d2t02.flac:2d7cfdcbd90d672dbba3c0d134392024
zero1998-05-07d2t03.flac:dae38995b272008ed130f7afa7a950ab
zero1998-05-07d2t04.flac:68d3d5e1b881e55bb9458431fba174e0
zero1998-05-07d2t05.flac:abee21ad586387efad1949497d1eeea3
zero1998-05-07d2t06.flac:53a3576cf579630dd84e217d09f939ac
md5
9d898c99944910b25e051809d85b6f5f *zero1998-05-07d1t01.flac
76a3f56daac280b4c3910c9e90d39b3a *zero1998-05-07d1t02.flac
688ef4581f8e74a220cc6f33cb118b7b *zero1998-05-07d1t03.flac
3e0f1502b45de6011d5ee21b5792e694 *zero1998-05-07d1t04.flac
2dddcd12d258fbebb580810a3fc3e5d5 *zero1998-05-07d1t05.flac
16d888a7eef307339e1c6b81f94f5622 *zero1998-05-07d1t06.flac
082aee6c7c46c6ba54e388b86ef0efaf *zero1998-05-07d1t07.flac
bbae7e15b0ba10cb070b7782d2a2b2a8 *zero1998-05-07d1t08.flac
be074b7a861bde45b090dfeaef436340 *zero1998-05-07d2t01.flac
03407fa17df509792ecd6eddc262d663 *zero1998-05-07d2t02.flac
303dc036c27f7182450cc126dce0d0ef *zero1998-05-07d2t03.flac
2ce5f75e5088ea2b3627118fba796717 *zero1998-05-07d2t04.flac
2c4526a768792bbc813a98b7bdb58b05 *zero1998-05-07d2t05.flac
c00db37140b55fd3072271aa8ffeb6a7 *zero1998-05-07d2t06.flac

Comments
Add Comment
Other Sources (comments)
(FOB) Neumann KM140 >... (0) Source: FOB Neumann km140 >... (0) FOB Neumann km140 > neumann... (0)
Date User Comment