Browse Collections Artists Sources   Search Dates

Add Show    List Management    Help


Zero 05/23/98
Frontier Ranch, Kirkersville, OH
Comments Add Comment    Source Collectors    Add to Collection    Add to Want List    History
Source # 96919 Other Sources
Entered by Charlie Miller
Checksums ffp , md5
Disc Counts 1 / 2
Media Size
Date Circulated
Date Added
1/15/09
01/15/2009
Source Summary flac16;Recording Info:(Stage) Microtech-Gefell M300 -> Aphex 107 -> Phillips ISP 5022 -> Dat (Tascam DA-P1) -> Sound Forge -> CD (SHN); Transfer Info: CD (SHN) -> Samplitude Professional v10.2 -> FLAC; Recorded By Brian Abramson; Mastered By Charlie Miller 
Source Information - Download Text | Download Zip
Zero - May 23, 1998
Frontier Ranch - Kirkersville, OH
Hookahville Festival

Recording Info:
(Stage) Microtech-Gefell M300 -> Aphex 107 -> Phillips ISP 5022 ->
Dat (Tascam DA-P1) -> Sound Forge -> CD (SHN)

Transfer Info:
CD (SHN) -> Samplitude Professional v10.2 -> FLAC
(2 Discs Audio / 1 Disc FLAC)

Recorded By Brian Abramson
Mastered By Charlie Miller
[email protected]
January 15, 2009

Notes:
-- Disc change is seamless
-- Sun Sun Sun with John Pelanski on congas

Set 1:
d1t01 - Highway 61 Revisited
d1t02 - Anorexia
d1t03 - Pits Of Thunder
d1t04 - La Fiesta
d1t05 - Out In The Woods
d1t06 - Ermaline
d1t07 - Tangled Hangers
d2t01 - Sun Sun Sun
d2t02 - Catalina

Encore:
d2t03 - Use Me Up


SHNTOOL OUTPUT:
    length     expanded size   cdr  WAVE problems filename
     9:31.15      100759724    ---   --   -----   zero1998-05-23d1t01.wav
     9:08.32       96742508    ---   --   -----   zero1998-05-23d1t02.wav
    14:29.39      153383372    ---   --   -----   zero1998-05-23d1t03.wav
     9:48.41      103819676    ---   --   -----   zero1998-05-23d1t04.wav
    11:53.61      125916716    ---   --   -----   zero1998-05-23d1t05.wav
     8:48.70       93303884    ---   --   -----   zero1998-05-23d1t06.wav
    14:18.64      151501772    ---   --   -----   zero1998-05-23d1t07.wav
    12:28.08      131966060    ---   --   -----   zero1998-05-23d2t01.wav
    13:11.53      139657100    ---   --   -----   zero1998-05-23d2t02.wav
     8:42.71       92247836    ---   --   -----   zero1998-05-23d2t03.wav
   112:22.04     1189298648 B                     (totals for 10 files)
Show Checksums
ffp
zero1998-05-23d1t01.flac:2f576d8d516b0e1c1f983ea823540e4a
zero1998-05-23d1t02.flac:7be3eb0c046bec70a2a3afb76527cf92
zero1998-05-23d1t03.flac:5069c9c1d8f171a76e3bbe133cac55ca
zero1998-05-23d1t04.flac:09a6aa8fb1cb9e4d60d5a4b12c4c399b
zero1998-05-23d1t05.flac:beb8a561218d7c2ff7f87c7895f31e6f
zero1998-05-23d1t06.flac:642a4e43f9b9f176de73591a27c97a3d
zero1998-05-23d1t07.flac:b73ada24eb4aaf84afc5c5ee52e66284
zero1998-05-23d2t01.flac:0975b1a79f3b2dbc169f5ffbcacbcb08
zero1998-05-23d2t02.flac:9de66d01ad91ca0e392edbe41e21561c
zero1998-05-23d2t03.flac:f4ebc15c8d19e1f79d6f315211bd24ae
md5
2f2adda06055e234668b89e0fb12895b *zero1998-05-23d1t01.flac
b155d8a4c94bacce21e460f4284d947b *zero1998-05-23d1t02.flac
0300beb0ed700361a9feb42f31e6f4c0 *zero1998-05-23d1t03.flac
c55a3a9e0eff9e57b8d97bea085b4325 *zero1998-05-23d1t04.flac
cf452993b716034f79ab126e29b23fd1 *zero1998-05-23d1t05.flac
1490e5b744d7d83a321a64098a3b824b *zero1998-05-23d1t06.flac
c009d24d0d320415c3c58b1d16f11898 *zero1998-05-23d1t07.flac
72e86acf9c0b48ac2746c374b1b4b6ba *zero1998-05-23d2t01.flac
ec07e763bc7d09cacba4890125d9f5ef *zero1998-05-23d2t02.flac
b51e920c29b79670961f736f83493514 *zero1998-05-23d2t03.flac

Comments
Add Comment
Other Sources (comments)
FOB Neumann KM-140 >... (0) Schoeps MK4V > Sonosax >... (0)
Date User Comment