Browse Collections Artists Sources   Search Dates

Add Show    List Management    Help


Zero 05/30/98
Wetlands Preserve, New York, NY
Comments Add Comment    Source Collectors    Add to Collection    Add to Want List    History
Source # 96921 Other Sources
Entered by Charlie Miller
Checksums md5 , ffp
Disc Counts 2 / 3
Media Size
Date Circulated
Date Added
1/15/09
01/16/2009
Source Summary flac16;Recording Info:(Stage) Microtech-Gefell M300 -> Aphex 107 -> Phillips ISP 5022 -> Dat (Tascam DA-P1) -> Sound Forge -> CD (SHN); Transfer Info: CD (SHN) -> Samplitude Professional v10.2 -> FLAC; Recorded By Brian Abramson; Mastered By Charlie Miller  
Source Information - Download Text | Download Zip
Zero - May 30, 1998
Wetlands Preserve - New York City, NY

Recording Info:
(Stage) Microtech-Gefell M300 -> Aphex 107 -> Phillips ISP 5022 ->
Dat (Tascam DA-P1) -> Sound Forge -> CD (SHN)

Transfer Info:
CD (SHN) -> Samplitude Professional v10.2 -> FLAC
(3 Discs Audio / 2 Discs FLAC)

Recorded By Brian Abramson
Mastered By Charlie Miller
[email protected]
January 15, 2009

Set 1:
d1t01 - Tuning
d1t02 - Pits of Thunder
d1t03 - Mr. Broadway
d1t04 - Friday's Child
d1t05 - Up On Cripple Creek
d1t06 - Berm
d1t07 - Spoonful
d1t08 - Favela
d1t09 - Running On Faith

Set 2:
d2t01 - Tuning
d2t02 - Chance In A Million
d2t03 - Catalina
d2t04 - La Fiesta
d2t05 - Ermaline
d2t06 - Knockin' On Heaven's Door
d2t07 - Junko Partner
d2t08 - End Of The World Blues
d3t01 - Can't Keep A Good Man Down
d3t02 - Anorexia ->
d3t03 - Godzilla ->
d3t04 - Turn On Your Lovelight ->
d3t05 - Anorexia
d3t06 - Highway 61 Revisited

Encore:
d3t07 - Little Wing


SHNTOOL OUTPUT:
    length     expanded size   cdr  WAVE problems filename
     1:23.51       14761196    ---   --   -----   zero1998-05-30d1t01.wav
     9:59.17      105703628    ---   --   -----   zero1998-05-30d1t02.wav
     8:05.69       85716332    ---   --   -----   zero1998-05-30d1t03.wav
     9:58.12      105515468    ---   --   -----   zero1998-05-30d1t04.wav
     8:02.59       85163612    ---   --   -----   zero1998-05-30d1t05.wav
    12:28.67      132104828    ---   --   -----   zero1998-05-30d1t06.wav
     9:19.28       98673500    ---   --   -----   zero1998-05-30d1t07.wav
     7:18.04       77272652    ---   --   -----   zero1998-05-30d1t08.wav
    11:11.45      118470284    ---   --   -----   zero1998-05-30d1t09.wav
     0:54.32        9600908    ---   --   -----   zero1998-05-30d2t01.wav
     9:27.57      100152908    ---   --   -----   zero1998-05-30d2t02.wav
     9:41.65      102641324    ---   --   -----   zero1998-05-30d2t03.wav
    12:10.61      128915516    ---   --   -----   zero1998-05-30d2t04.wav
    11:53.38      125862620    ---   --   -----   zero1998-05-30d2t05.wav
     8:01.51       84968396    ---   --   -----   zero1998-05-30d2t06.wav
     9:00.18       95298380    ---   --   -----   zero1998-05-30d2t07.wav
    14:17.45      151280684    ---   --   -----   zero1998-05-30d2t08.wav
     9:02.73       95780540    ---   --   -----   zero1998-05-30d3t01.wav
     3:42.45       39266684    ---   --   -----   zero1998-05-30d3t02.wav
     2:28.57       26241308    ---   --   -----   zero1998-05-30d3t03.wav
     2:02.38       21610220    ---   --   -----   zero1998-05-30d3t04.wav
     2:36.03       27525500    ---   --   -----   zero1998-05-30d3t05.wav
     9:26.14       99875372    ---   --   -----   zero1998-05-30d3t06.wav
     8:24.19       88950332    ---   --   -----   zero1998-05-30d3t07.wav
   190:58.68     2021352192 B                     (totals for 24 files)
Show Checksums
md5
2c016151ec55bbb4f0af3c629baa5c6c *zero1998-05-30d1t01.flac
c530f8949a05adf6e7d2c54e617e8d90 *zero1998-05-30d1t02.flac
4f490d1567c6ba773881a1d6eba9b8b5 *zero1998-05-30d1t03.flac
77cb0a1d8a804e6ad47e43d09305a5a7 *zero1998-05-30d1t04.flac
71359eea3d6cd9f51d5eae6ef1563fc9 *zero1998-05-30d1t05.flac
df0abd4dc7cd9f5c537d7c971096311d *zero1998-05-30d1t06.flac
f2f60f7184c6fa82689f5a913f087950 *zero1998-05-30d1t07.flac
5d929eedecfbd5d51c44109d2f7fbb65 *zero1998-05-30d1t08.flac
7ea2ac239ea72855a119c1f21324dea0 *zero1998-05-30d1t09.flac
93a3c9f526ca2cc96026f27c7cf405a0 *zero1998-05-30d2t01.flac
76d754a5c175e80c782609c3e5d286e6 *zero1998-05-30d2t02.flac
eb4384c821901407d98451f91a19a500 *zero1998-05-30d2t03.flac
72017cd6655a30936b126f8f3da8a076 *zero1998-05-30d2t04.flac
ab6d807a1bcf2f778b3b1c3680773f35 *zero1998-05-30d2t05.flac
8de61896eedba68eb39ecf5a159a66b9 *zero1998-05-30d2t06.flac
c53b33675af1ebc40b4644c322261a92 *zero1998-05-30d2t07.flac
1a7d900d431f37a3240ddc2358efa78b *zero1998-05-30d2t08.flac
255eb98d0217c8fa91d0f35d8cb4ceab *zero1998-05-30d3t01.flac
43c234ee0e3081809695c63999a3643e *zero1998-05-30d3t02.flac
c18607e4431f3f0384e2d342e8a60691 *zero1998-05-30d3t03.flac
3c55beac57aca808da9f915d10a24f6e *zero1998-05-30d3t04.flac
7dd716df6e5d3dffa02a7c88be602b34 *zero1998-05-30d3t05.flac
f9b4ba8b5abd6c780632afbda4626c40 *zero1998-05-30d3t06.flac
86f8de50f6ecd051e9dccd79a280fe60 *zero1998-05-30d3t07.flac
ffp
zero1998-05-30d1t01.flac:7994aa58774c40d3e6526393fc4f7606
zero1998-05-30d1t02.flac:e0bf0b9206cc5472ea6f2030682b3497
zero1998-05-30d1t03.flac:01148d5786ee322d292df2ba00199665
zero1998-05-30d1t04.flac:efac53da212154ff8656d9021f406a6b
zero1998-05-30d1t05.flac:d71c4d4027643f72c763c0a0ebfa1f0c
zero1998-05-30d1t06.flac:948ff39fcc91158b27a7bf39148aeeeb
zero1998-05-30d1t07.flac:771ddb1f85b1c5d831f48fd2dab7e71a
zero1998-05-30d1t08.flac:4013563865081c08f53b973b7695bfe5
zero1998-05-30d1t09.flac:9b6408dfdf4bd2a27acbbef1bcbe034b
zero1998-05-30d2t01.flac:b252a99087bee6bd39de077e398a4dc5
zero1998-05-30d2t02.flac:52afa6bd9c8b9bd59eb4c186d36d2d32
zero1998-05-30d2t03.flac:9971191020427d6a6f88faa822dc3cdf
zero1998-05-30d2t04.flac:8636cb3455b82f0c9c0a3a80e5a00723
zero1998-05-30d2t05.flac:84dbf814c7a330a3b6c75729aa06f51c
zero1998-05-30d2t06.flac:92d24bfc1e148a988e1d7fcb07e463d9
zero1998-05-30d2t07.flac:3ce2900ec610fdd6688d0cf7d50e1605
zero1998-05-30d2t08.flac:152cd1551f0462bde5156d5b598a892f
zero1998-05-30d3t01.flac:50856bc5bc5c21a52c8ca4952c649961
zero1998-05-30d3t02.flac:baa4b9d738cb9efbeeda960a885a959d
zero1998-05-30d3t03.flac:c99f0b9db5e1895c02c2c96c71c192f4
zero1998-05-30d3t04.flac:7fb62dbcce192f8d5060c355d163b708
zero1998-05-30d3t05.flac:3b764dc0ca1713c7b8436b305dece0c2
zero1998-05-30d3t06.flac:29ab03640dd27e1d42b5d97d457d2975
zero1998-05-30d3t07.flac:1d051585e0e142d773149dc80d61baeb

Comments
Add Comment
Other Sources (comments)
(FOB) Schoeps CMC6/MK4 >... (0)
Date User Comment