Browse Collections Artists Sources   Search Dates

Add Show    List Management    Help


Grateful Dead 08/05/71
Hollywood Palladium, Hollywood, CA
Comments Add Comment    Source Collectors    Add to Collection    Add to Want List    History
Source # 97014 Other Sources
Entered by dr.unclear
Checksums ffp , flac-md5
Disc Counts 1 / 2
Media Size
Date Circulated
Date Added
01/21/2009
01/20/2009
Source Summary flac 16; Sick Bits Vol. 29a - SBD/AUD mix of 2 previously circulating sources: SBD (shnid=96540) + AUD (shnid=94260) as well as patch AUD sources (shnid=88859 and shnid=9768). Matrixed by Chris Chappell. 
  Archive
Source Information - Download Text | Download Zip
Grateful Dead
Hollywood Palladium
Hollywood, CA
8-5-71
Sick Bits Vol. 29a

Source: Matrix (SBD/AUD mix)
Ratio ~ Phi (SBD/AUD)

SBD: shnid=96540 (via Charlie Miller via Mastering Plant in L.A.)
Recording Info:
SBD -> Master Reel -> CD
Transfer Info:
CD -> Samplitude Professional v10.02 -> FLAC

AUD: shnid=94260 (via Matt Smith via Will Boswell via Rob Bertrando)
Recorded By Harvey Kaslow and Craig Todd
(FOB) Sony ECM-22P condenser mics > Sony 770 portable 7" reel deck.
Lineage:
MR > R > CD > EAC > WAV > FLAC
Transfer:
R > Akai GX625 > apogee mini me (24/96) > apogee  mini dac
(monitoring) > Lynx One soundcard > wavelab 5.0 (dithered to 20/44) >
CD > EAC > WAV (shntool confirms no sbes) > FLAC (TLH)
Notes:
Loser (d2t02) was missing on this reel but used Don Wolfe's
MAR>R>R @ 3 3/4 ips copy...  

ALT AUD: shnid=88859 (via Charlie Miller)
(FOB) Sony ECM-22P -> Master Reel (same as 94260) -> Reel -> Dat -> CD  
supplies Sugar Magnolia (d2t03) but is now pitch adjusted (30 edits)

Patch AUD: shnid=9768 (via Rob Bertrando)
Lineage: MR (same as 94260) > R > DAT > CD > SHN
Provides tuning patches after Bertha (d1t02) and Wharf Rat (d1t08)

Notes:
- Sugar Magnolia through end of show (d2t03>d2t06) is AUD only (no matrix)
- Me & Bobby McGee through the end of the show (d1t09>d2t06) is mono only
  on the AUD sources due to a mic malfunction

Matrixed by Chris Chappell
January 8, 2009
[email protected]
__________________________

Set 1:
d1t01 - Introduction
d1t02 - Bertha
d1t03 - Me And My Uncle
d1t04 - Mr. Charlie
d1t05 - Sugaree
d1t06 - El Paso
d1t07 - That's It For The Other One ->
d1t08 - Wharf Rat
d1t09 - Me And Bobby McGee
d1t10 - Casey Jones

Set 2:
d2t01 - Truckin'
d2t02 - Loser
d2t03 - Sugar Magnolia//
XXXXX - Bird Song (MISSING)
XXXXX - Not Fade Away -> (MISSING)
d2t04 - //Goin' Down The Road Feeling Bad ->
d2t05 - Not Fade Away
d2t06 - Johnny B. Goode
__________________________

General notes:

Of course I frequed when I saw Charlie's SBD seeds of both Hollywood
Palladium shows.  Recent fresh Apogee A/D transfers of Harvey Kaslow's
classic AUDs by Matt Smith (instigated by Dr. Bertrando perhaps?) set
the stage for a matrix.  The two sources compliment each other nicely,
although both sources sound great on their own, so this is by no means
a rescue mission (except for the Sugar Mags), but just another shnid
to file away, or play loudly if that's your thing.

This show contains the 3rd performances ever of Mr. Charlie and Sugaree.

Editing Notes:

- Pitch/Synch
The SBD source is pretty close in pitch, so I decided to use it as my
master pitch/synch ref. Note that d2t03 (Sugar Mags, which had major pitch
issues - basically it starts out almost a half step flat and ends up more
than a half step sharp) through the end of show is AUD only.

AUD Pitch adjustment ranges:
d1t01 > d1t05: +21 to +25 cents
d1t06 > d1t08: -1 to -8 cents
d1t09 > d1t10: +44 to +48 cents
d2t01        : +33 to +37 cents
d2t02(diff. reel): +12 to -106 cents - major pitch issues (beware of mtx)
d2t03 (shnid=88859): +85 to -108 cents - pitch adjusted (much better now)
d2t04 > d2t05: (back to shnid=94260) - no pitch adjustment
d2t06        : +38 cents

- Dynamics
No EQ or NR was applied to any of these sources.  I applied very sparingly
Waves L2 ([email protected] -0.4) to the master 2 buss to keep all sources contained,
the levels rarely hitting zero, thus the limiting is quite scarce.

- Envelope Edits
The following are places where the SBD and AUDs had splices, holes or
incomplete coverage in reference to the final matrix timeline.

SBD:
d2t03 > d2t06 - missing

AUD:
d1t01 (00:00 - 00:07) - crowd
d1t05 (06:45 - 08:44) - tuning
d1t06 (05:37 - 08:51) - tuning
d1t07 (10:18 - 10:39) - missing
d2t04  - cuts in at the 2nd verse

ALT AUD:
d2t03 (5:01 - ?:??) - missing (cuts at Sunshine Daydream)

Many thanks to all involved in the making of these recordings:
Rex Jackson for recording the SBD and Charlie Miller for editing and getting
it out there.  Thanks to Harvey Kaslow and Craig Todd for making the wonderful
AUD recording, Matt Smith for the A/D transfer and Will Boswell, Rob Bertrando
and Charlie Miller for their parts in making the AUDs available.  
Special Thanks goes out to those at the Mastering Plant who were involved
and anyone who was responsible in the surfacing of the SBD - you rock!

Enjoy,
Chappy
__________________________
SHNTOOL:

    length     expanded size   cdr  WAVE problems filename
     0:47.68        8450780    ---   --   ---xx   gd71-08-05d1t01.flac
     9:52.07      104445308    ---   --   ---xx   gd71-08-05d1t02.flac
     3:50.51       40691996    ---   --   ---xx   gd71-08-05d1t03.flac
     3:52.61       41068316    ---   --   ---xx   gd71-08-05d1t04.flac
     9:02.06       95622956    ---   --   ---xx   gd71-08-05d1t05.flac
     9:10.71       97187036    ---   --   ---xx   gd71-08-05d1t06.flac
    18:00.29      190580252    ---   --   ---xx   gd71-08-05d1t07.flac
    11:00.38      116513420    ---   --   ---xx   gd71-08-05d1t08.flac
     6:06.66       64717676    ---   --   ---xx   gd71-08-05d1t09.flac
     5:51.41       62012876    ---   --   ---xx   gd71-08-05d1t10.flac
     9:19.27       98671148    ---   --   ---xx   gd71-08-05d2t01.flac
     6:39.23       70437740    ---   --   ---xx   gd71-08-05d2t02.flac
     5:01.23       53150540    ---   --   ---xx   gd71-08-05d2t03.flac
     6:42.49       71028092    ---   --   ---xx   gd71-08-05d2t04.flac
     2:49.32       29886908    ---   --   ---xx   gd71-08-05d2t05.flac
     4:15.28       45047900    ---   --   ---xx   gd71-08-05d2t06.flac
   112:23.20     1189512944 B (totals for 16 files, 0.5974 overall compression ratio)
Show Checksums
ffp
gd71-08-05d1t01.flac:0e201a21fe492b5dd86a91d3cc2f1ac7
gd71-08-05d1t02.flac:0b4ac84d2756064ef75cd043540c2661
gd71-08-05d1t03.flac:e08e4f23b7d46045d66e3383cab5d88e
gd71-08-05d1t04.flac:1d88fea38e5d378babb1557472d2d0e3
gd71-08-05d1t05.flac:6be1c5cddd206db90c63ab7c252a1275
gd71-08-05d1t06.flac:4c2398b970b55b683302012b11827bfb
gd71-08-05d1t07.flac:1dc2d7a3dea0d567ddf657ff81c2eebc
gd71-08-05d1t08.flac:61dc5be1b6cba2a3c02d903620bae85a
gd71-08-05d1t09.flac:43d27961b2281bee61fb30cbb1c218db
gd71-08-05d1t10.flac:fd844873c6d6a7b485e188b7e2518fa5
gd71-08-05d2t01.flac:a239348eeb78ee9273c1d54289247eb6
gd71-08-05d2t02.flac:9b6215d770c9a23293bccd1fef560d8c
gd71-08-05d2t03.flac:2097cc2ee2fe6ef3ed2f18d69124c7f9
gd71-08-05d2t04.flac:c74ad736712d5ee52cd881bfe916dd02
gd71-08-05d2t05.flac:5f8ee7aa0657e6f25100b197b8290e4c
gd71-08-05d2t06.flac:ab7378c090f1cbac5651ad2ed2697221
flac-md5
7298a2e0f713f7b200a5723269362b50 *gd71-08-05d1t01.flac
8ec9f550bd26e2213d0de6a0faa78144 *gd71-08-05d1t02.flac
fa4dec5b0101e22a3d0d8f78e9a65af4 *gd71-08-05d1t03.flac
161428ca485766f4ec4bb65614d3a0b9 *gd71-08-05d1t04.flac
333dbec0e2485747c2b225b3d08ec357 *gd71-08-05d1t05.flac
e404e9c2aa57a85ffd32649df9da240e *gd71-08-05d1t06.flac
fd1ff6ae8a50229ea888eb2a87bcb53b *gd71-08-05d1t07.flac
1d624efe1c444b9a5b70b2ec6f079cc6 *gd71-08-05d1t08.flac
f66af645c84dcedbab6fd7972c98af47 *gd71-08-05d1t09.flac
22727f9396670759582e50cab7dfb3b6 *gd71-08-05d1t10.flac
6a317ba661b53145ec2d7fc43ad86152 *gd71-08-05d2t01.flac
642025c23deaf6a9391dd02593d0e42d *gd71-08-05d2t02.flac
5ce1100bf1036267a9c66872fb4692c8 *gd71-08-05d2t03.flac
9fe32968e2417691a547486c5cdd1a8a *gd71-08-05d2t04.flac
551f282685537884e7516b1218577e3c *gd71-08-05d2t05.flac
babd38c65a29f62ccd34ccf7c117e69f *gd71-08-05d2t06.flac

Comments
Add Comment
Other Sources (comments)
AUD>MR>R>D>CD; via Jeff... (3) flac16; Recording... (0) flac16; MR > R > CD... (0) flac16; Recording... (0) flac24; Recording... (0) flac16; Recording... (0) flac24; Source:... (0)
Date User Comment