Browse Collections Artists Sources   Search Dates

Add Show    List Management    Help


Grateful Dead 08/06/71
Hollywood Palladium, Hollywood, CA
Comments Add Comment    Source Collectors    Add to Collection    Add to Want List    History
Source # 97015 Other Sources
Entered by dr.unclear
Checksums ffp , flac-md5
Disc Counts 2 / 3
Media Size
Date Circulated
Date Added
01/21/2009
01/20/2009
Source Summary flac 16; Sick Bits Vol. 29b - SBD/AUD mix of 2 previously circulating primary sources: SBD (shnid=96541) + AUD (shnid=94261) as well as patch AUD source (shnid=88816). Matrixed by Chris Chappell. 
  Archive
Source Information - Download Text | Download Zip
Grateful Dead
Hollywood Palladium
Hollywood, CA
8-6-71
Sick Bits Vol. 29b

Source: Matrix (SBD/AUD mix)
Ratio ~ Phi (SBD/AUD)

SBD: shnid=96541 (via Charlie Miller via Mastering Plant in L.A.)
Recording Info:
SBD -> Master Reel -> CD
Transfer Info:
CD -> Samplitude Professional v10.02 -> FLAC

AUD: shnid=94261 (via Matt Smith via Will Boswell via Rob Bertrando)
Recorded By Harvey Kaslow and Craig Todd
(FOB) Sony ECM-22P condenser mics > Sony 770 portable 7" reel deck.
Lineage:
MR > R > CD > EAC > WAV > FLAC
Transfer:
R > Akai GX625 > apogee mini me (24/96) > apogee  mini dac
(monitoring) > Lynx One soundcard > wavelab 5.0 (dithered to 20/44) >
CD > EAC > WAV (shntool confirms no sbes) > FLAC (TLH)

Patch AUD: shnid=88816 (via Charlie Miller)
(FOB) Sony ECM-22P -> Master Reel (same as 94261) -> Reel -> Dat -> CD  
supplies Me & Bobby McGee (d1t09)

Matrixed by Chris Chappell
January 9, 2009
[email protected]
__________________________

Set 1:
d1t01 - crowd
d1t02 - Bertha
d1t03 - Playing In The Band
d1t04 - Loser
d1t05 - Mr. Charlie
d1t06 - El Paso
d1t07 - Cumberland Blues
d1t08 - Brokedown Palace
d1t09 - Me And Bobby McGee
d1t10 - Hard To Handle
d1t11 - Casey Jones

Set 2:
d2t01 - Saint Stephen
d2t02 - tuning
d2t03 - Truckin' ->
d2t04 - Drums ->
d2t05 - The Other One ->
d2t06 - Me And My Uncle ->
d2t07 - The Other One
d2t08 - Deal
d2t09 - Sugar Magnolia
d2t10 - Morning Dew
d3t01 - Turn On Your Lovelight
__________________________

General notes:

Of course I frequed when I saw Charlie's SBD seeds of both Hollywood
Palladium shows.  Recent fresh Apogee A/D transfers of Harvey Kaslow's
classic AUDs by Matt Smith (instigated by Dr. Bertrando perhaps?) set
the stage for a matrix.  The two sources compliment each other nicely,
although both sources sound great on their own, so this is by no means
a rescue mission, but just another shnid to file away, or play loudly
if that's your thing.

Editing Notes:

- Pitch/Synch
Unlike the AUD source from 8-5-71 (shnid=94260), this AUD source is the
closest in pitch of the two matrix sources, so I decided to use it as
my master pitch/synch ref.

SBD Pitch adjustment ranges:
d1t01 > d1t06: +6 to +12 cents
d1t07 > d1t08: -0.1 to +1.2 cents
d1t09 > d1t11: +5 to +10 cents
d2t01 > d2t05: -3 to +4 cents (until cut in The Other One)
d2t05 > d2t07: +11 to +13 cents (post cut/reel change)
d2t08        : +2 to +3 cents
d2t09 > d2t10: -1 to +3 cents
d3t01        : -3 to +6 cents

- Dynamics
No EQ or NR was applied to any of these sources.  I applied very sparingly
Waves L2 ([email protected] -0.4) to the master 2 buss to keep all sources contained,
the levels rarely hitting zero, thus the limiting is quite scarce.

- Envelope Edits
The following are places where the SBD and AUDs had splices, holes or
incomplete coverage in reference to the final matrix timeline, excluding
in between song tuning/crowd.

SBD:
d2t05 (01:28 - 02:23) - missing

AUD:
d1t06 (00:00 - 07:03) - missing all (El Paso)
d3t01 (19:57 - 21:01) - missing

Many thanks to all involved in the making of these recordings:
Rex Jackson for recording the SBD and Charlie Miller for editing and getting
it out there.  Thanks to Harvey Kaslow and Craig Todd for making the wonderful
AUD recording, Matt Smith for the A/D transfer and Will Boswell, Rob Bertrando
and Charlie Miller for their parts in making the AUDs available.  
Special Thanks goes out to those at the Mastering Plant who were involved
and anyone who was responsible in the surfacing of the SBD - you rock!

Enjoy,
Chappy
__________________________
SHNTOOL:
    length     expanded size   cdr  WAVE problems filename
     0:43.10        7608764    ---   --   ---xx   gd71-08-06d1t01.flac
     8:56.49       94665692    ---   --   ---xx   gd71-08-06d1t02.flac
     6:01.64       63830972    ---   --   ---xx   gd71-08-06d1t03.flac
     7:59.30       84566204    ---   --   ---xx   gd71-08-06d1t04.flac
     5:12.64       55187372    ---   --   ---xx   gd71-08-06d1t05.flac
     7:05.08       74988860    ---   --   ---xx   gd71-08-06d1t06.flac
     7:08.39       75590972    ---   --   ---xx   gd71-08-06d1t07.flac
     5:58.64       63301772    ---   --   ---xx   gd71-08-06d1t08.flac
     8:08.54       86210252    ---   --   ---xx   gd71-08-06d1t09.flac
     7:45.57       82160108    ---   --   ---xx   gd71-08-06d1t10.flac
     5:46.01       61036796    ---   --   ---xx   gd71-08-06d1t11.flac
     6:45.69       71604332    ---   --   ---xx   gd71-08-06d2t01.flac
     5:41.72       60321788    ---   --   ---xx   gd71-08-06d2t02.flac
     7:09.59       75814412    ---   --   ---xx   gd71-08-06d2t03.flac
     3:55.28       41519900    ---   --   ---xx   gd71-08-06d2t04.flac
     7:50.20       82955084    ---   --   ---xx   gd71-08-06d2t05.flac
     3:11.74       33866492    ---   --   ---xx   gd71-08-06d2t06.flac
     6:22.50       67502444    ---   --   ---xx   gd71-08-06d2t07.flac
     5:48.13       61417820    ---   --   ---xx   gd71-08-06d2t08.flac
     7:06.15       75181724    ---   --   ---xx   gd71-08-06d2t09.flac
    11:27.14      121219772    ---   --   ---xx   gd71-08-06d2t10.flac
    27:01.18      285986780    ---   --   ---xx   gd71-08-06d3t01.flac
   163:07.47     1726538312 B (totals for 22 files, 0.6066 overall compression ratio)
Show Checksums
ffp
gd71-08-06d1t01.flac:9a1c8a22358f58c7f864ccfdfc6bed5f
gd71-08-06d1t02.flac:9f7b4471714db79a3b2afaab2cf2f66c
gd71-08-06d1t03.flac:cbf7ccc92790b925e859b24e90dbb953
gd71-08-06d1t04.flac:c521869a19283b34ec1eaeabf54440e3
gd71-08-06d1t05.flac:16a5f5155c93a50677a6d1ffc819f2c2
gd71-08-06d1t06.flac:c771abe614afc19593beee6b7989c159
gd71-08-06d1t07.flac:197457319eb0dd784018c429ed836c0d
gd71-08-06d1t08.flac:156302d69085fff95d0911816fa93a00
gd71-08-06d1t09.flac:b46414bd8d159eacb5cdb320a4b5c1d6
gd71-08-06d1t10.flac:85b5c0140989e9a60e92ed752e1383e0
gd71-08-06d1t11.flac:55bf21d38d2d46e9a5ae6203605e836a
gd71-08-06d2t01.flac:4646adef92eb07e14eff409282349503
gd71-08-06d2t02.flac:f6f9f6b8857059a0aa7cbcd53c1142c0
gd71-08-06d2t03.flac:443566db5ef4386124a8d8fe714ec17e
gd71-08-06d2t04.flac:000a78f5b63939a8188f17c05fc27352
gd71-08-06d2t05.flac:acf7c83b11a1bff01dde7602d696f392
gd71-08-06d2t06.flac:4dc94f8db7026587ad95792c45f5d423
gd71-08-06d2t07.flac:28ea41f9b8c8eec5f7d60bdc5a5ed7fd
gd71-08-06d2t08.flac:0707efd727b48570340ff51f4dd58953
gd71-08-06d2t09.flac:0ee0d4121abbad54caeda61be45a48ed
gd71-08-06d2t10.flac:22c0cac9dc90dcba0506ff902785e1c6
gd71-08-06d3t01.flac:ed29630e71e70c1f75a548cb6dc944c3
flac-md5
70efca94b93483a3a6feeeec8ec21c90 *gd71-08-06d1t01.flac
1af2557b2f149671fc58e20ae603799b *gd71-08-06d1t02.flac
9d2819972f3852d79cd65b860abd40d4 *gd71-08-06d1t03.flac
ef3b816225c25e4a55fdc5ea6d6b7986 *gd71-08-06d1t04.flac
2795be27887b2e0a64e5662a0baeaa04 *gd71-08-06d1t05.flac
cb818b7f214044f86d29b8b961f01815 *gd71-08-06d1t06.flac
72bb25b537ca69164a34d625088d33ee *gd71-08-06d1t07.flac
36df10f55b4633066b73297518bbd795 *gd71-08-06d1t08.flac
cdfacbe63c515045107ee363289400e3 *gd71-08-06d1t09.flac
7b6a4d037f58f3ecaa613eada2854492 *gd71-08-06d1t10.flac
289dd6d401f711ceb5f53da313328961 *gd71-08-06d1t11.flac
0f47b8334ef714f239a4af4b1e3070c2 *gd71-08-06d2t01.flac
436c775319e81ca1e8321f988445bd47 *gd71-08-06d2t02.flac
1b08dd5e496bad55e01ca5e5cd70cece *gd71-08-06d2t03.flac
a52963dd45c9932e0ba58311feae37ca *gd71-08-06d2t04.flac
f454429659393703aad7dc2e28c2f9eb *gd71-08-06d2t05.flac
6200758c9a726afe1afdb037a54d6902 *gd71-08-06d2t06.flac
59a5a0c1e9442413409e603595feb3a3 *gd71-08-06d2t07.flac
3a1ba22a55b3b4ca987b73f79d481853 *gd71-08-06d2t08.flac
8583d966187bcd382e98dec70d6cc6b5 *gd71-08-06d2t09.flac
90f68ea5608548590ff367e9a34936b3 *gd71-08-06d2t10.flac
9cdd8cd2f65f7b49ee89e8aa4be6dafb *gd71-08-06d3t01.flac

Comments
Add Comment
Other Sources (comments)
updated source info: Sony... (12) source info: Sony ECM-22P... (1) flac16; fix of the... (1) flac16; Recording... (0) flac16; MR > R > CD... (1) flac16; Recording... (0) flac16; Matrix by... (0) flac24; FOB Sony... (0) DVD-VA: (Video... (0) flac24; Aud.7.5... (0) flac24; Lineage: MAR... (0) flac16; Matrix 2... (0) DTS-Audio-CD 5.1... (0)
Date User Comment