Browse Collections Artists Sources   Search Dates

Add Show    List Management    Help


Grateful Dead 03/16/90
Capital Centre, Landover, MD
Comments Add Comment    Source Collectors    Add to Collection    Add to Want List    History
Source # 97023 Other Sources
Entered by dr.unclear
Checksums ffp , flac-md5
Disc Counts 2 / 3
Media Size
Date Circulated
Date Added
01/20/2009
01/20/2009
Source Summary flac16; matrix of SBD: shnid=85201 and AUD: shnid=91782 by hansokolow using ProTools  
  Archive
Source Information - Download Text | Download Zip
Grateful Dead
Friday, March 16th, 1990
Capital Centre
Landover, MD

       cd1  -  set 1
1)  Let The Good Times Roll
2)  Touch Of Gray
3)  Minglewood Blues
4)  El Paso
5)  Queen Jane Approximately
6)  Loser
7)  Black Throated Wind
8)  Bird Song
9)  Blow Away

       cd2  -  set 2
1)  Scarlet Begonias->
2)  Estimated Prophet
3)  Ship of Fools->
4)  Women Are Smarter
5)  Jam->
6)  Drums->

       cd3
1)  Space->
2)  The Other One->
3)  Stella Blue->
4)  Sugar Magnolia
5)    e:  The Last Time

- first Black Throated Wind since 10-19-74 (981shows)

-----------------------------------

This is a matrix, redone by hansokolow in ProTools, of the following sources:

SBD: shnid=85201

Recording Info:
SBD -> Cassette Master -> Dat (44.1k)

Transfer Info:
Dat (Sony R500) -> Samplitude Professional v9.1.1 -> FLAC
(3 Discs Audio / 2 Discs FLAC)

All Transfers and Mastering By Charlie Miller
[email protected]
May 16, 2007

Notes:
-- 2nd Set disc change is seamless
-- Jam contains Eyes Of The World tease

-----------------------------------

AUD: shnid=91782

Unknown Microphones > Unknown Deck > Marantz PMD 430 > Maxell XL-II 90 cassettes
Tapers Section
Floor section 128, row GG, seat 15
Recorded by Chris LaPorte

Master Cassettes > SB Audigy > Adobe Audition @24bit/44.1Khz

Adobe Audition: Noise Reduction, fade ins/outs, pop/click eliminator, 16bit.

CDwave: tracking

Trader's little Helper: md5, ffp, flacs.

-----------------------------------

hansokolow's notes: On the advice of Charlie Miller and others, I redid this matrix from scratch, using two superior sources.  It really did come out better.  All SBD sources have a 5 second cut in Touch Of Grey at 6:04.  The AUD has a tapeflip after Loser.  Both sources have tapeflips during Drums, fortunately in different places.  Both sources have most of the crowd noise before the encore cut out, and both are missing a few opening notes of the encore.  I patched in from a different AUD (Sennheiser 4xx's > Marantz PMDxxx > MC) for more crowd noise, and the first couple of notes of The Last Time.  Completed: 01/14/2009

-Tano ([email protected])


    length     expanded size    cdr  WAVE problems  fmt   ratio  filename
     4:07.25       43629644 B   ---   --   ---xx  gd90-03-16d1t01.flac
     6:25.02       67918748 B   ---   --   ---xx  gd90-03-16d1t02.flac
     8:32.63       90465020 B   ---   --   ---xx  gd90-03-16d1t03.flac
     6:32.63       69297020 B   ---   --   ---xx  gd90-03-16d1t04.flac
     6:54.44       73133132 B   ---   --   ---xx  gd90-03-16d1t05.flac
     7:51.59       83223212 B   ---   --   ---xx  gd90-03-16d1t06.flac
     6:40.60       70701164 B   ---   --   ---xx  gd90-03-16d1t07.flac
    14:19.54      151654652 B   ---   --   ---xx  gd90-03-16d1t08.flac
    12:08.22      128470988 B   ---   --   ---xx  gd90-03-16d1t09.flac
    11:13.61      118860716 B   ---   --   ---xx  gd90-03-16d2t01.flac
    11:04.63      117277820 B   ---   --   ---xx  gd90-03-16d2t02.flac
     7:39.16       81005276 B   ---   --   ---xx  gd90-03-16d2t03.flac
     6:55.24       73262492 B   ---   --   ---xx  gd90-03-16d2t04.flac
     5:16.68       55902380 B   ---   --   ---xx  gd90-03-16d2t05.flac
     9:19.25       98666444 B   ---   --   ---xx  gd90-03-16d2t06.flac
    10:35.62      112159868 B   ---   --   ---xx  gd90-03-16d3t01.flac
     6:54.13       73060220 B   ---   --   ---xx  gd90-03-16d3t02.flac
     8:56.65       94703324 B   ---   --   ---xx  gd90-03-16d3t03.flac
     8:48.27       93202748 B   ---   --   ---xx  gd90-03-16d3t04.flac
     5:51.08       61935260 B   ---   --   ---xx  gd90-03-16d3t05.flac
   166:08.74     1758530128 B                            0.6305  (20 files)
Show Checksums
ffp
gd90-03-16d1t01.flac:6f662f50dd96006f91fcaff8385aea3d
gd90-03-16d1t02.flac:b036431bf09db89df32a325f7311c7dd
gd90-03-16d1t03.flac:627ad47ce08a56e4528551088ff4e3fa
gd90-03-16d1t04.flac:c2c19b74fc1dbb5c3f2ff6df0b680226
gd90-03-16d1t05.flac:40b304005cd88821f7d9511f99763047
gd90-03-16d1t06.flac:19c167c7eed012d90196a4d81627d16e
gd90-03-16d1t07.flac:f163a49ba5c91d130b845862d0792cdc
gd90-03-16d1t08.flac:b97e339889947fb7df0b625d08f0e806
gd90-03-16d1t09.flac:56c941213c2d45c0e4f6a5c2995e3bf4
gd90-03-16d2t01.flac:3231bcf7790a8c207977c036a51b484e
gd90-03-16d2t02.flac:3f0a9806f435f1fe6ece414596e34c23
gd90-03-16d2t03.flac:a25e3f88a9dcf258e33eabf94cb2b273
gd90-03-16d2t04.flac:3bc5674f436623f4b49ac5c100cba1cc
gd90-03-16d2t05.flac:49047ae7d0447bca2662b382e5a674ba
gd90-03-16d2t06.flac:98f96e2f8b5970922a08ec9b94858faa
gd90-03-16d3t01.flac:b667dd7c2e20c87915fae9d18879b86b
gd90-03-16d3t02.flac:610d4013de44e7a468adf34c4c3126a8
gd90-03-16d3t03.flac:8b048f924b9766c11c6379ca16aff961
gd90-03-16d3t04.flac:e939f39f3ada738ece21436459bb38ae
gd90-03-16d3t05.flac:037145d1480f586d3557c9cdefe8aab7
flac-md5
7b3942ade751830c9f9a2e2246f76cca *gd90-03-16d1t01.flac
5cdce570cee1364e3be20e124695e8a5 *gd90-03-16d1t02.flac
0b84a021a07210783400680c15cc786f *gd90-03-16d1t03.flac
3b0f364f97b37562fcb5cc9c0c19d31e *gd90-03-16d1t04.flac
ca46e53c8e97493f047553d507dd6484 *gd90-03-16d1t05.flac
333a6c1efa1364eb5e37b51d505a7a5f *gd90-03-16d1t06.flac
bce826924740b5736a8a64b65c1d680f *gd90-03-16d1t07.flac
0a1c53a81855bfbd8ad494438ba03f76 *gd90-03-16d1t08.flac
52da7f6e578649563c397756289b20c6 *gd90-03-16d1t09.flac
f6e04c7b81b4ef577b230225f2733adf *gd90-03-16d2t01.flac
e3707ce7af20f440dcc3b2a301c69c9f *gd90-03-16d2t02.flac
e265e08b536dd9b8322a30a79d8b2911 *gd90-03-16d2t03.flac
84bc275ab511f1d05811daf1e3e0b9d7 *gd90-03-16d2t04.flac
4941cf2ceb7b0b318849db8656ec5e65 *gd90-03-16d2t05.flac
e8a2b8b82579707d0212a9a32fd04e1b *gd90-03-16d2t06.flac
a6edb30211e30749aa4aa3fd76227432 *gd90-03-16d3t01.flac
822105ff9a3feb58d17f560dcb7b9335 *gd90-03-16d3t02.flac
ace92d625b0b09989a805a6cbb301526 *gd90-03-16d3t03.flac
4ae824105f04b93695c4937c5f67e89a *gd90-03-16d3t04.flac
524c293b9fadae3cbab85252c4f55e57 *gd90-03-16d3t05.flac

Comments
Add Comment
Other Sources (comments)
sbd > ? > cdr > eac > shn;... (4) flac16; Aud MC > CDR... (0) flac16; Seamless and... (6) flac16; Sennheiser... (3) flac16; Recording... (0) flac16; Unknown... (0) flac16; matrix of... (3) flac16; Source:... (0) flac24; Master... (0) flac16; Master... (0) flac16; Matrix 2... (0) DTS-Audio-CD 5.1... (0) flac16/48kHz; Rick... (0) flac16/48kHz; Rick... (0) flac24; Recording... (0) flac16; Recording... (0) flac16/48kHz; Ted... (0)
Date User Comment