Browse Collections Artists Sources   Search Dates

Add Show    List Management    Help


Gov't Mule 10/23/99
The Fillmore, San Francisco, CA
Comments Add Comment    Source Collectors    Add to Collection    Add to Want List    History
Source # 97087 Other Sources
Entered by
Checksums ffp , flac.md5
Disc Counts 2 / 2
Media Size
Date Circulated
Date Added
02/01/09
01/23/2009
Source Summary Recording Info: Neumann KM184 -> Mackie 1202VLZ -> Zefiro InBox -> Dat (Sony D8)
Transfer Info: Dat (Sony D8) -> CD (Tascam CDRW-700) -> Samplitude Professional v10.2 -> FLAC 
Source Information - Download Text | Download Zip
Gov't Mule - October 23, 1999
Fillmore Auditorium - San Francisco, CA

Recording Info:
Neumann KM184 -> Mackie 1202VLZ -> Zefiro InBox -> Dat (Sony D8)

Transfer Info:
Dat (Sony D8) -> CD (Tascam CDRW-700) -> Samplitude Professional v10.2 -> FLAC
(2 Discs Audio / 2 Discs FLAC)

Recorded and Transferred By Charlie Miller
[email protected]
January 26, 2009

Notes:
-- I couldn't find my master Dat so I used my master back-up discs
-- Patched out of Bryan Fox and Dan Sisler
-- * with Gregg Allman on keyboards & vocals
-- ** with Gregg on keyboards & vocals & John Popper on harmonica
-- *** with John Popper on harmonica & vocals
-- **** with Clovis keyboards, John on harmonica & Audley Freed on guitar
-- ***** with Clovis on keys, Audley on guitar and Chris Robinson on vocals
-- + 1st time played

Set 1:
d1t01 - It Takes More Than A Hammer And Nails To Make A House A Home
d1t02 - Mule -> I've Been Workin' -> Mule
d1t03 - Life Before Insanity
d1t04 - She Said She Said ->
d1t05 - Tomorrow Never Knows Jam
d1t06 - Lay Your Burden Down
d1t07 - Bad Little Doggie
d1t08 - How Many More Years

Set 2:
d2t01 - Tuning
d2t02 - Soulshine*
d2t03 - Dreams*
d2t04 - Just Before the Bullets Fly**
d2t05 - Stormy Monday**
d2t06 - Low Rider***+
d2t07 - Mountains Win Again***+

Encore:
d2t08 - 32-20 Blues****
d2t09 - The Hunter*****


SHNTOOL OUTPUT:
    length     expanded size   cdr  WAVE problems filename
     6:01.12       63708668    ---   --   -----   mule1999-10-23d1t01.wav
    13:28.47      142641788    ---   --   -----   mule1999-10-23d1t02.wav
     6:45.42       71540828    ---   --   -----   mule1999-10-23d1t03.wav
     4:41.13       49599020    ---   --   -----   mule1999-10-23d1t04.wav
     8:04.62       85523468    ---   --   -----   mule1999-10-23d1t05.wav
     5:35.56       59225756    ---   --   -----   mule1999-10-23d1t06.wav
     3:54.57       41411708    ---   --   -----   mule1999-10-23d1t07.wav
    10:31.60      111449564    ---   --   -----   mule1999-10-23d1t08.wav
     1:37.06       17124956    ---   --   -----   mule1999-10-23d2t01.wav
     7:53.00       83437244    ---   --   -----   mule1999-10-23d2t02.wav
     9:57.24      105367292    ---   --   -----   mule1999-10-23d2t03.wav
     7:00.02       74092748    ---   --   -----   mule1999-10-23d2t04.wav
     9:56.50      105252044    ---   --   -----   mule1999-10-23d2t05.wav
    10:57.67      116052428    ---   --   -----   mule1999-10-23d2t06.wav
     8:32.42       90415628    ---   --   -----   mule1999-10-23d2t07.wav
     9:27.58      100155260    ---   --   -----   mule1999-10-23d2t08.wav
     7:50.58       83044460    ---   --   -----   mule1999-10-23d2t09.wav
   132:16.56     1400042860 B                     (totals for 17 files)
Show Checksums
ffp
mule1999-10-23d1t01.flac:a6afc0d8316b2cb6ba9a691326ff715f
mule1999-10-23d1t02.flac:01cf9693fa36ea99ac2712795a30c1f9
mule1999-10-23d1t03.flac:33cddcfe3bb173d31816ec07393d84f7
mule1999-10-23d1t04.flac:99d63ca1ad387ca7802b0f7397a2a118
mule1999-10-23d1t05.flac:85a2e983a918ef300f72df527ad5047c
mule1999-10-23d1t06.flac:40ee757980262507d2b02e4d7c3e9ea6
mule1999-10-23d1t07.flac:f20e3932ab39fc3c8d4e3e8138cb45b1
mule1999-10-23d1t08.flac:cf47a4c84e687cb235782f61a80ce4c4
mule1999-10-23d2t01.flac:33ef26f09b23b04b7e83bce52b174286
mule1999-10-23d2t02.flac:90776f24576414a3d9fa08878e212323
mule1999-10-23d2t03.flac:2a44692d09348fe541fbc504e68f290c
mule1999-10-23d2t04.flac:74c73614500506ffc8cd24cd7d1aa6f9
mule1999-10-23d2t05.flac:9e02c2575bc81d4dd07428f45b2e0a58
mule1999-10-23d2t06.flac:24a3514e3483554b598f73b5e26b09c6
mule1999-10-23d2t07.flac:1ea7f41210b29059130139e613478c0b
mule1999-10-23d2t08.flac:13a1d5695e39230a1b5f9acee8d2ea7e
mule1999-10-23d2t09.flac:cba63d66a2c229cc8c760743fed142e2
flac.md5
93ec506f38a1a3e3bcc0195e49ea7388 *mule1999-10-23d1t01.flac
3fb23cf4cb427ccdc863bbb6266f5c47 *mule1999-10-23d1t02.flac
780a167d05113af441bb9b4fcfe75ae9 *mule1999-10-23d1t03.flac
e396ddcc993de1d9fc356a138a4e2fc9 *mule1999-10-23d1t04.flac
d05baabeba32b9ae1f14749db0e01ea7 *mule1999-10-23d1t05.flac
85074b5cb7e7dc9f38207cb9b0b23bc4 *mule1999-10-23d1t06.flac
74b82edfd24d9bc00216bb56a128d62b *mule1999-10-23d1t07.flac
1327e627744be0085ee258684725a20b *mule1999-10-23d1t08.flac
d967b10c3050ea4e682cea058dbb08c2 *mule1999-10-23d2t01.flac
b39efba4b6c74e684154882c7f556543 *mule1999-10-23d2t02.flac
93d82f06eac4dae5e65fe42b5fbf54f0 *mule1999-10-23d2t03.flac
e744d84552d589bd1270ba5626d8bf27 *mule1999-10-23d2t04.flac
e039eb735746b352f5ad6aee1c2e5cde *mule1999-10-23d2t05.flac
ccc0c3034995d3c0db361ed6001e6a5c *mule1999-10-23d2t06.flac
558a6994e1ba6f152c4e4cbb5696314d *mule1999-10-23d2t07.flac
2827519163882070b4732cf1d0128d75 *mule1999-10-23d2t08.flac
39d245c4c0ea2d484645c48eff6ac184 *mule1999-10-23d2t09.flac

Comments
Add Comment
Date User Comment
01/26/2009 fleetmac14 the EAC logs should be included with this fileset. If they are not email me ([email protected]) and I will send them to you

01/26/2009 skbarchives I recorded this show and have a master dat. Not sure if it is the same source as this, but might be. The venue is the fillmore auditorium, not the fillmore west. The fillmore west closed in 1971 and was on the corner of market and van ness. This venue, the fillmore auditorium is on fillmore and geary.