Browse Collections Artists Sources   Search Dates

Add Show    List Management    Help


Grateful Dead 04/09/83
Hampton Coliseum, Hampton, VA
Comments Add Comment    Source Collectors    Add to Collection    Add to Want List    History
Source # 97109 Other Sources
Entered by Matt Vernon
Checksums ffp , flac-md5
Disc Counts 2 / 2
Media Size
Date Circulated
Date Added
01/24/2009
01/24/2009
Source Summary flac16; Matrix by Hunter Seamons using Final Cut Pro (SHN & FLAC>AIFF>Final Cut>WAV>FLAC) 
  Archive
Source Information - Download Text | Download Zip
Grateful Dead
Hampton Coliseum
Hampton, VA
April 9, 1983


*Matrix*

----------------------------------------------------
SBD (shnid=93145):

Recording Info:
SBD -> Master Cassette -> Reel -> Dat (48k)

Transfer Info:
Dat (Sony R500) -> SEK'D Prodif Plus -> Samplitude v7.02 Professional -> SHN -> WAV -> Samplitude Professional v10.1 -> Adobe Audition v1.5 -> FLAC

(Transfer info previously documented as: Dat (Sony R500) -> SEK'D Prodif Plus -> Samplitude v7.02 Professional -> SHN -> WAV -> Samplitude Professional v10.1 -> FLAC)
(2 Discs Audio / 2 Discs FLAC)

Patch Info:
(FOB) Sennheiser 441 -> Cassette Master -> Dat -> CD supplies:
Truckin' (0:03 - 0:10) (5:08 - 7:39)
One More Saturday Night (3:02 - 3:30)

All Transfers and Mastering By Charlie Miller
[email protected]
July 23, 2008

Notes:
-- This is a remaster of shnid=27703
-- Fixed the swapped channels in 1st Set
-- Fixed patches
-- Pitch corrected complete show
-- Removed DC offset
-- There is a Mind Left Body tease at end of Throwing Stones
-- Patch source recorded by Rob Eaton
-- Thanks to Joe B. Jones for his help with the pitch correction

----------------------------------------------------
AUD (shnid=14190):

Audience Recording: Sennheiser 441-->Sony D6
Note: Track 1 is incomplete...I was late, I guess...
This was my 1st Master, 1st of Many
elwood(AKA Steve Fundy)

---------------------------------------------------
Thank you to Charlie Miller for the SBD transfer,
and to Steve Fundy for recording the show.

Matrix by Hunter Seamons using Final Cut Pro (SHN & FLAC>AIFF>Final Cut>WAV>FLAC)
January 23, 2009


Set I
-----
d1t01 - Bertha ->
d1t02 - The Promised Land
d1t03 - West L.A. Fadeaway
d1t04 - My Brother Esau
d1t05 - Candyman
d1t06 - New Minglewood Blues
d1t07 - Brown Eyed Women ->
d1t08 - Looks Like Rain
d1t09 - China Cat Sunflower ->
d1t10 - I Know You Rider

Set II
-----
d2t01 - Tuning
d2t02 - Help On The Way ->
d2t03 - Slipknot! ->
d2t04 - Franklin's Tower ->
d2t05 - Truckin' ->
d2t06 - Smokestack Lightnin' Jam -> The Other One Jam ->
d2t07 - Drums ->
d2t08 - Space ->
d2t09 - Throwing Stones ->
d2t10 - Black Peter ->
d2t11 - Goin' Down The Road Feeling Bad ->
d2t12 - One More Saturday Night

Encore
------
d2t13 - (I Can't Get No) Satisfaction


Notes:

1) Cuts in the AUD during Bertha, Space, at the beginning of Looks Like Rain, and between songs.

2) The matrix begins at 3:33 of track 1. (shnid=9199 not used)

    length     expanded size    cdr  WAVE problems  fmt   ratio  filename
     6:14.50       66091244 B   ---   --   ---xx  gd83-04-09d1t01.flac
     4:21.32       46115708 B   ---   --   ---xx  gd83-04-09d1t02.flac
     8:11.65       86765324 B   ---   --   ---xx  gd83-04-09d1t03.flac
     6:55.56       73337756 B   ---   --   ---xx  gd83-04-09d1t04.flac
     7:20.15       77651324 B   ---   --   ---xx  gd83-04-09d1t05.flac
     8:21.48       88489340 B   ---   --   ---xx  gd83-04-09d1t06.flac
     5:08.01       54333596 B   ---   --   ---xx  gd83-04-09d1t07.flac
     7:16.25       76969244 B   ---   --   ---xx  gd83-04-09d1t08.flac
     5:32.70       58729484 B   ---   --   ---xx  gd83-04-09d1t09.flac
     6:10.05       65279804 B   ---   --   ---xx  gd83-04-09d1t10.flac
     0:49.49        8758892 B   ---   --   ---xx  gd83-04-09d2t01.flac
     3:49.19       40440332 B   ---   --   ---xx  gd83-04-09d2t02.flac
     4:18.22       45562988 B   ---   --   ---xx  gd83-04-09d2t03.flac
     9:51.37      104339468 B   ---   --   ---xx  gd83-04-09d2t04.flac
     7:49.00       82731644 B   ---   --   ---xx  gd83-04-09d2t05.flac
     4:35.53       48634700 B   ---   --   ---xx  gd83-04-09d2t06.flac
     6:59.22       73963388 B   ---   --   ---xx  gd83-04-09d2t07.flac
     5:41.58       60288860 B   ---   --   ---xx  gd83-04-09d2t08.flac
     8:20.40       88294124 B   ---   --   ---xx  gd83-04-09d2t09.flac
     7:41.62       81466268 B   ---   --   ---xx  gd83-04-09d2t10.flac
     5:36.15       59305724 B   ---   --   ---xx  gd83-04-09d2t11.flac
     4:31.66       47959676 B   ---   --   ---xx  gd83-04-09d2t12.flac
     5:18.32       56170508 B   ---   --   ---xx  gd83-04-09d2t13.flac
   140:56.17     1491679396 B                            0.6061  (23 files)
Show Checksums
ffp
gd83-04-09d1t01.flac:b5a89986a5c486826037aac3420c4721
gd83-04-09d1t02.flac:a626748dff835768c895d458777e0d9b
gd83-04-09d1t03.flac:bd33bb938aed507fd14907ea4a3f369b
gd83-04-09d1t04.flac:34ae47d4bda48faef69f66c9b7568ff4
gd83-04-09d1t05.flac:6f13f2b69ef5b674e6a6790de34138c9
gd83-04-09d1t06.flac:248dda6ae5191a0468efb6298d34d9f6
gd83-04-09d1t07.flac:efa8e5030271d2c1d0af24f605b61d9f
gd83-04-09d1t08.flac:1fa03f781cd3478acb071201bbd3abcb
gd83-04-09d1t09.flac:697389b2082a00fd507119456bb82da5
gd83-04-09d1t10.flac:420bd7a218c37961422df64eb921c81a
gd83-04-09d2t01.flac:2d176b2027cbe43aa8b3db87f7e057e2
gd83-04-09d2t02.flac:61a3aec390e7d81a2f31c871c06954fd
gd83-04-09d2t03.flac:56f885f899fd8e7215b2cacd6b3033ed
gd83-04-09d2t04.flac:34f09a0850f95bdfd081f7e388f05ffc
gd83-04-09d2t05.flac:d508870f3a0287c41341f949be1b2280
gd83-04-09d2t06.flac:e062fe887d1740f0e17c22c0815918ee
gd83-04-09d2t07.flac:e025f56a137ce8852cc2775b9744a9a8
gd83-04-09d2t08.flac:3bcdfea0273c9a27034629cd90427f9c
gd83-04-09d2t09.flac:d65e2cebe7ed0dfc4a48e09233306633
gd83-04-09d2t10.flac:89982f37105a03c13ba42b314869fe02
gd83-04-09d2t11.flac:b03c2c6098201b321f5b762bffe7e113
gd83-04-09d2t12.flac:995f297b2ca7b29fa8df3eb77895c1d4
gd83-04-09d2t13.flac:5bf50f6c5ddbfff52d29c7485cbcf282
flac-md5
6ab2740a73d2822bb8dabeef854cb909 *gd83-04-09d1t01.flac
021afb830b9b314d52f5ffdc84d959b4 *gd83-04-09d1t02.flac
78877ff29f128c8af979ce9ee9c5a4da *gd83-04-09d1t03.flac
9ac69a61d062ee8c8a78d5e462aaee8a *gd83-04-09d1t04.flac
77629b03fdd5c40103f3fee675152db4 *gd83-04-09d1t05.flac
c4ae96d4535b127bf3aa01da609ff4f3 *gd83-04-09d1t06.flac
2e2d1a3e8dad69dd1b03a961d446ee60 *gd83-04-09d1t07.flac
c222b0c85acf905ec8b195bc3986cc11 *gd83-04-09d1t08.flac
19287d4738abf00c9924124c8ebb2d7d *gd83-04-09d1t09.flac
db2e61f90e3af2f75bd295158305891a *gd83-04-09d1t10.flac
ce64b9a524f583c1d44b37b701a3eddb *gd83-04-09d2t01.flac
e1d2e1db8e6d2aac7c806fcf1f55c42e *gd83-04-09d2t02.flac
4ce5dd19dcb191d5b9af36ea2c2520a6 *gd83-04-09d2t03.flac
72e094fa187cf4c9df8893190ed31549 *gd83-04-09d2t04.flac
c9e162383de3e6262edff8c0fbd9e0ee *gd83-04-09d2t05.flac
14b225fd37a2832abe259ae971aad23e *gd83-04-09d2t06.flac
2bb10ac40d2db9ca01a42e71d3c1a065 *gd83-04-09d2t07.flac
c53208acbee9a877d1df63d1d818d0de *gd83-04-09d2t08.flac
5188baaf914fb89f748c83f6e6e19e5e *gd83-04-09d2t09.flac
67500ed17db59fd94cc4705ee44a27cf *gd83-04-09d2t10.flac
f42cadc729ef08c1f4b3459fa2fcf352 *gd83-04-09d2t11.flac
a298133112f13753b071c7d68009cc13 *gd83-04-09d2t12.flac
b42aa54348636397e3df7e2833c7ca0f *gd83-04-09d2t13.flac

Comments
Add Comment
Other Sources (comments)
Senn 421 mics > Sony TC-D5... (3) Audience Recording:... (2) SBD> Master Cassette> Reel>... (7) flac16; Recording... (1) flac16; Master... (0) flac24; Master... (0) flac24; Set Two AUD:... (0) flac16; Set Two AUD:... (0) flac16/44.1 Source... (0) flac24/48 Source... (0) flac16/44.1 Source... (0) flac24/48 Source... (0)
Date User Comment