Browse Collections Artists Sources   Search Dates

Add Show    List Management    Help


Grateful Dead 04/02/90
The Omni, Atlanta, GA
Comments Add Comment    Source Collectors    Add to Collection    Add to Want List    History
Source # 97216 Other Sources
Entered by dr.unclear
Checksums ffp , flac-md5
Disc Counts 2 / 2
Media Size
Date Circulated
Date Added
02/01/2009
01/31/2009
Source Summary flac16; matrix of SBD: shnid=17731 and AUD: shnid=3299 by hansokolow using ProTools  
  Archive
Source Information - Download Text | Download Zip
Grateful Dead
Monday, April 2nd, 1990
The Omni
Atlanta, GA

        cd1  -  set 1
1) (crowd/tuning)
2)  Feel Like A Stranger
3)  Mississippi Half-Step Uptown Toodleloo->
4)  The Weight
5)  Queen Jane Approximately
6)  Easy To Love You
7)  Brown Eyed Women
8)  Let It Grow

        plus encore:
9)  e:  Black Muddy River

        cd2  -  set 2
1)  Foolish Heart->
2)  Looks Like Rain->
3)  He's Gone->
4)  The Last Time->
5)  Drums->
6)  Space->
7)  The Other One->
8)  Death Don't Have No Mercy->
9)  Around And Around->
10)  Good Lovin'

- final performance of Death Don't Have No Mercy

-----------------------------------

This is a matrix, done by hansokolow in ProTools, of the following sources:

SBD: shnid=17731
MSC>DAT>CDR
Cdr > Eac > cool edit pro > cdwav > shntool > shnv3
Discs kindly provided by Andy Lemieux
Eac > shn by Ernie Dodd

This seed is an upgrade because it is the master sbd cassette. The hiss
present on shnid=12198 is not on this seed and suggests a later generation
for that seed.There is one very minor digi spot at 3:16 in space but
otherwise flawless. Enjoy!!

-----------------------------------

AUD: shnid=3299
Nak 300's/cp 4's > *Marantz PMD420 > dat > cdr
Taped by Alan Wallace

Transfer:
**eac > cdwave > mkwact
Discs provided by Kevin Gills, shn by Doug Nawrocki

* this is an analog deck so the lineage is:
                    audmc>dat>cdr>eac>cdwave>shn
**range extracted at 100% for retracking

-----------------------------------

-Tano ([email protected])

    length     expanded size    cdr  WAVE problems  fmt   ratio  filename
     3:04.10       32481164 B   ---   --   ---xx  gd90-04-02d1t01.flac
     9:23.20       99360284 B   ---   --   ---xx  gd90-04-02d1t02.flac
     6:57.16       73596476 B   ---   --   ---xx  gd90-04-02d1t03.flac
     6:48.01       71973596 B   ---   --   ---xx  gd90-04-02d1t04.flac
     6:53.68       73013180 B   ---   --   ---xx  gd90-04-02d1t05.flac
     6:27.10       68290364 B   ---   --   ---xx  gd90-04-02d1t06.flac
     6:11.70       65609084 B   ---   --   ---xx  gd90-04-02d1t07.flac
    12:19.15      130394924 B   ---   --   ---xx  gd90-04-02d1t08.flac
     7:21.33       77870060 B   ---   --   ---xx  gd90-04-02d1t09.flac
    10:14.14      108342572 B   ---   --   ---xx  gd90-04-02d2t01.flac
     8:26.20       89305484 B   ---   --   ---xx  gd90-04-02d2t02.flac
     8:59.30       95150204 B   ---   --   ---xx  gd90-04-02d2t03.flac
     5:42.58       60465260 B   ---   --   ---xx  gd90-04-02d2t04.flac
    10:34.06      111851756 B   ---   --   ---xx  gd90-04-02d2t05.flac
     8:29.35       89869964 B   ---   --   ---xx  gd90-04-02d2t06.flac
     6:26.26       68151596 B   ---   --   ---xx  gd90-04-02d2t07.flac
     7:39.22       81019388 B   ---   --   ---xx  gd90-04-02d2t08.flac
     3:41.23       39038540 B   ---   --   ---xx  gd90-04-02d2t09.flac
     6:35.35       69760364 B   ---   --   ---xx  gd90-04-02d2t10.flac
   142:14.62     1505544260 B                            0.5872  (19 files)
Show Checksums
ffp
gd90-04-02d1t01.flac:a2fb1d6965caf1369c55e51bd82eff39
gd90-04-02d1t02.flac:c2bf6379bd8cecd99f227dd1d5da0470
gd90-04-02d1t03.flac:429df1c6ce775b2caf6b81494c6fb59d
gd90-04-02d1t04.flac:c2b1c6c81619ca6a77a1b6c92d3d171a
gd90-04-02d1t05.flac:2738478214560fab4c5df5230cef4dce
gd90-04-02d1t06.flac:d90daad76232cafc48eef8d995cfaaec
gd90-04-02d1t07.flac:735aab383f27e893903cb31e5ff306ea
gd90-04-02d1t08.flac:cacf7c0a8626ea1f89144970c7b6f5ac
gd90-04-02d1t09.flac:b716de1f08ba88b890884b44f4cf0b1f
gd90-04-02d2t01.flac:990c891d8cfda87283e03c08792aa9ef
gd90-04-02d2t02.flac:8a6288355647658eee79cb411d2d2700
gd90-04-02d2t03.flac:834dbfb0d2e9901e07c8e3fd37f207eb
gd90-04-02d2t04.flac:b056bb4d3eacba6ee7e238823fb4802d
gd90-04-02d2t05.flac:37627fd5f70b462b03eb2492b3d8a587
gd90-04-02d2t06.flac:5652f356887e62dc470e80c235dccad4
gd90-04-02d2t07.flac:5dad8e3040aa782922b71115e33c04c2
gd90-04-02d2t08.flac:8243ce26918f8670327fc49b419e5d5a
gd90-04-02d2t09.flac:1ae1147a331342ba5a45851c3b38d89a
gd90-04-02d2t10.flac:884df82e31dc95b146dab2408348d33f
flac-md5
5d32a4b4e6288a652f475267479c45d4 *gd90-04-02d1t01.flac
4a76ad2d14a80802ba01cd366126b959 *gd90-04-02d1t02.flac
061e18ff7e726fb5f581c20556eb6cda *gd90-04-02d1t03.flac
58ad187adf7e47c4080b098ea6708109 *gd90-04-02d1t04.flac
462202e7b0a989fb425634048ee88420 *gd90-04-02d1t05.flac
d252101033336d35e2b468d25c1881db *gd90-04-02d1t06.flac
eef1c453d3148549fc8518c2c801f746 *gd90-04-02d1t07.flac
71ab87673440a51a98e8fb9aa66f08ce *gd90-04-02d1t08.flac
e4925b3748134f4cb258373736d185d0 *gd90-04-02d1t09.flac
063791b7c4b871517a8bf484fec87e9d *gd90-04-02d2t01.flac
43d4929da3779170633de0db02c22c8a *gd90-04-02d2t02.flac
bab69fc358f8f1004e0a5924f5bc0cf8 *gd90-04-02d2t03.flac
06f78f9486cc3804179b7c116fe8bb89 *gd90-04-02d2t04.flac
21d025c9515efe9c995000f9f4e47914 *gd90-04-02d2t05.flac
009c8a7634a5dbc6945fd18439205cfb *gd90-04-02d2t06.flac
806b81f79ef9866afd7db84c12b7295d *gd90-04-02d2t07.flac
b47f97383d6a24a0eb03273dba375ccd *gd90-04-02d2t08.flac
3406b632a8f43aa568a9d3ade0f2a222 *gd90-04-02d2t09.flac
615f5077af2c3db9a49ae0c9e211d3a5 *gd90-04-02d2t10.flac

Comments
Add Comment
Other Sources (comments)
Nak 300's/cp 4's > *Marantz... (0) FOB Nak 300/CP4's (Pair) +... (0) SBD -> ? -> Dat ->... (1) SBD -> ? -> Dat ->... (0) MSC> DAT> Cdr > Eac > cool... (0) flac16;Recorded by... (0) flac16; Source info:... (0) flac16; Source info:... (0) flac16; Source:... (0) flac16/48kHz; Dave... (0)
Date User Comment