Browse Collections Artists Sources   Search Dates

Add Show    List Management    Help


Ratdog 11/14/08
Tower Theater, Upper Darby, PA
Comments Add Comment    Source Collectors    Add to Collection    Add to Want List    History
Source # 97350 Other Sources
Entered by ziko
Checksums ffp
Disc Counts 2 / 3
Media Size
Date Circulated
Date Added
02/10/2009
02/10/2009
Source Summary Source: aud > ECM-MS957s > WM-D6 > mac; Transfer: mac > Nakamichi ZX-7 > Tascam HD-P2 > wav 24/96 > Adobe Audition > Wavelab with iZotope Ozone > iZotope RX Advanced > wav 16/44.1 > CD Wave > TLH > flac16 
Source Information - Download Text | Download Zip
Ratdog
Tower Theater,
Upper Darby, PA
11/14/2008


Source: aud > ECM-MS957s > WM-D6 > mac
Transfer: mac > Nakamichi ZX-7 > Tascam HD-P2 > wav 24/96 > Adobe Audition > Wavelab with iZotope Ozone >
                 iZotope RX Advanced > wav 16/44.1 > CD Wave > TLH > flac16


Disc 1
set I

01   crowd/tuning
02   Jam >
03   Feel Like a Stranger >
04   Big River >
05   Row Jimmy >
06   Money for Gasoline
07   crowd/tuning
08   Lazy River Road >
09   Odessa >
10   Dark Star* >
11   Bertha


Disc 2
set II

01   tuning
02   Catfish John
03   Jack-A-Roe
04   crowd/tuning
05   Corrina
06   The Last Time >
07   Ashes and Glass >
08   Stuff** >
09   Dear Prudence >

Disc 3
set II cont'd

01   St. Stephen >
02   William Tell Bridge >
03   The Eleven
04   crowd

encore

05   Touch of Grey


Notes:

- tape flip after "Money for Gasoline" crossfaded
- patches:
   tape flip in "Dark Star" 17:54 - 18:01
   tape flip in "Ashes and Glass" 1:52 - 1:58
   tape flip in "The Eleven" 0:16 - 0:19

   patch source:  schoeps mk-41 dina > actives > nbox+ > edirol r-09 (shnid 95852)

- there is a little distortion at times
- if burning to disc, disc 1 will require an overburn
- seamless change between discs 2 and 3


Comments:

* first verse only
**Jay/Jeff/Kenny/Robin > Jay > Jay/Jeff/Kenny/Robin > all


---------------------------------------------------------

- Taped by John Bleich

- Transferred by Bgreen

- Edited by SIRMick

- First seeded to Lossless Legs - February 2009

- Brought To You By Live Music Preservation Project

- Have questions/comments, contact [email protected]

-----------------------------------------------------------

Shntool output:

    length     expanded size    cdr  WAVE problems  fmt   ratio  filename
     0:24.00        4233644 B   ---   --   ---xx   flac  0.5012  rd2008-11-14d1t01.flac
     3:41.19       39029132 B   ---   --   ---xx   flac  0.5530  rd2008-11-14d1t02.flac
     9:07.27       96554348 B   ---   --   ---xx   flac  0.5687  rd2008-11-14d1t03.flac
     7:03.24       74673692 B   ---   --   ---xx   flac  0.5821  rd2008-11-14d1t04.flac
    10:05.32      106797308 B   ---   --   ---xx   flac  0.5577  rd2008-11-14d1t05.flac
     6:43.30       71159804 B   ---   --   ---xx   flac  0.5844  rd2008-11-14d1t06.flac
     1:10.63       12496220 B   ---   --   ---xx   flac  0.5027  rd2008-11-14d1t07.flac
     9:01.58       95568860 B   ---   --   ---xx   flac  0.5438  rd2008-11-14d1t08.flac
     7:25.68       78657980 B   ---   --   ---xx   flac  0.5634  rd2008-11-14d1t09.flac
    19:04.64      201952172 B   ---   --   ---xx   flac  0.5465  rd2008-11-14d1t10.flac
     7:47.35       82461164 B   ---   --   ---xx   flac  0.5945  rd2008-11-14d1t11.flac
     0:27.39        4854572 B   ---   --   ---xx   flac  0.4641  rd2008-11-14d2t01.flac
     6:57.63       73707020 B   ---   --   ---xx   flac  0.5293  rd2008-11-14d2t02.flac
     5:00.71       53087036 B   ---   --   ---xx   flac  0.5498  rd2008-11-14d2t03.flac
     1:11.42       12623228 B   ---   --   ---xx   flac  0.4810  rd2008-11-14d2t04.flac
    13:41.28      144890300 B   ---   --   ---xx   flac  0.5477  rd2008-11-14d2t05.flac
     7:00.44       74191532 B   ---   --   ---xx   flac  0.5813  rd2008-11-14d2t06.flac
    15:41.66      166147676 B   ---   --   ---xx   flac  0.5551  rd2008-11-14d2t07.flac
    10:43.30      113495804 B   ---   --   ---xx   flac  0.5343  rd2008-11-14d2t08.flac
     9:19.74       98781692 B   ---   --   ---xx   flac  0.5392  rd2008-11-14d2t09.flac
     9:39.47      102246188 B   ---   --   ---xx   flac  0.5600  rd2008-11-14d3t01.flac
     1:20.57       14246108 B   ---   --   ---xx   flac  0.5544  rd2008-11-14d3t02.flac
     9:22.24       99193292 B   ---   --   ---xx   flac  0.6112  rd2008-11-14d3t03.flac
     1:20.03       14119100 B   ---   --   ---xx   flac  0.5377  rd2008-11-14d3t04.flac
     8:07.18       85949180 B   ---   --   ---xx   flac  0.6054  rd2008-11-14d3t05.flac
   181:30.51     1921117052 B                            0.5599  (25 files)

Flac fingerprints:

rd2008-11-14d1t01.flac:974e361e73b526265e105dd1d2fb3e55
rd2008-11-14d1t02.flac:713a276301ac21747431fb8a4337ac34
rd2008-11-14d1t03.flac:e431709e65707a0363f1b8d963f674c4
rd2008-11-14d1t04.flac:e854f7445ac1b58e5f8c8d2a51206f94
rd2008-11-14d1t05.flac:2f79ee53e33d58e305af914193c5e8a6
rd2008-11-14d1t06.flac:17516f6068c45da93a7835b319aa3c29
rd2008-11-14d1t07.flac:964cebe468b63cfe39b1127441dfa0a1
rd2008-11-14d1t08.flac:f07795c3b9865d9790ba4a37ec7e3ca0
rd2008-11-14d1t09.flac:f0bf976da87853fa0753956c9cf8f279
rd2008-11-14d1t10.flac:95bc2926b2dabd4eafad679e9a8ffaf8
rd2008-11-14d1t11.flac:17ada24ed86d1d022438c22087d1bb5c
rd2008-11-14d2t01.flac:c2358728c9dbe5a38496ce2595a46430
rd2008-11-14d2t02.flac:a2f886f158a2f240a9b6078c6905831f
rd2008-11-14d2t03.flac:3ecbf0be8b3ea46a93f07a60dcf6b913
rd2008-11-14d2t04.flac:c64224ab9a09f0a2c1f2025b06d3f2e8
rd2008-11-14d2t05.flac:d1b10ed7058216c543758e7eb621cd88
rd2008-11-14d2t06.flac:4dcf29a59e610e113fa509d5276fae9b
rd2008-11-14d2t07.flac:9e4b0990d720d96beb29db7981d20b03
rd2008-11-14d2t08.flac:d2d03010abdc6933688fc3bc685e07e7
rd2008-11-14d2t09.flac:41c152b5901022749cc055316f1e60ed
rd2008-11-14d3t01.flac:32f0296528029a5ae2cac353a57fae04
rd2008-11-14d3t02.flac:7d29a1162905a386506140c0c4154751
rd2008-11-14d3t03.flac:73c1ba62a20abd83532369bfc2039faf
rd2008-11-14d3t04.flac:be6a0f38ad1875fac95e97c335a30610
rd2008-11-14d3t05.flac:bba454fb14f00c1edcae9f6699240cf9

Md5s:

9520200ee6cefbab9e2ffbb6dd8a8282 *rd2008-11-14d1t01.flac
df17892c37030488063bf24ad8937cb8 *rd2008-11-14d1t02.flac
a5ad40fb60d4635e9e4ffbc14972fce9 *rd2008-11-14d1t03.flac
a70effbdebe17904b7124845f0ff3835 *rd2008-11-14d1t04.flac
979f49f1f95dcb0a4db98d543d29f084 *rd2008-11-14d1t05.flac
f985eb51e828ebbad96ae4bb2400dcdd *rd2008-11-14d1t06.flac
fd4f5c2c962dbbbffde45792254b3f05 *rd2008-11-14d1t07.flac
c8f0f1b65e279b296ca794d5daa96953 *rd2008-11-14d1t08.flac
40ba378d54f9e3d5e8f542c80be223fc *rd2008-11-14d1t09.flac
2206bb2624d885762c8fabad4135258b *rd2008-11-14d1t10.flac
5cd69e731af21179b9cc055c265ff5de *rd2008-11-14d1t11.flac
32544415195f4f66dfba675f5508974c *rd2008-11-14d2t01.flac
b13d31a35078fecbad2af80cc57ce926 *rd2008-11-14d2t02.flac
3e37056e42dd625cd7b789aca7a216a4 *rd2008-11-14d2t03.flac
6c077ff055b7059ff19ca58afacbd050 *rd2008-11-14d2t04.flac
c83d80e5f0e61205c6ed96c3ce1a3e04 *rd2008-11-14d2t05.flac
580c5b9041e5c2c2905479ec5a007c8c *rd2008-11-14d2t06.flac
34bd20f44fe39dbc5f04648d6f1a77df *rd2008-11-14d2t07.flac
283646d7a38c1b868418e202ab748639 *rd2008-11-14d2t08.flac
da87992b1c136fa481d16b7092b6a1d4 *rd2008-11-14d2t09.flac
e4df672f8e86c85b34e70d60e8c931db *rd2008-11-14d3t01.flac
4ac6fbb59381aef2ab7a650cb9187e1e *rd2008-11-14d3t02.flac
ac8bbaf9f2262f0272d9534ed6f10aeb *rd2008-11-14d3t03.flac
9eaa7b09e71e4d23dc4572e821b6e71f *rd2008-11-14d3t04.flac
47a689be484dfba12df38dca998674b9 *rd2008-11-14d3t05.flac

St5s:

974e361e73b526265e105dd1d2fb3e55  [shntool]  rd2008-11-14d1t01.flac
713a276301ac21747431fb8a4337ac34  [shntool]  rd2008-11-14d1t02.flac
e431709e65707a0363f1b8d963f674c4  [shntool]  rd2008-11-14d1t03.flac
e854f7445ac1b58e5f8c8d2a51206f94  [shntool]  rd2008-11-14d1t04.flac
2f79ee53e33d58e305af914193c5e8a6  [shntool]  rd2008-11-14d1t05.flac
17516f6068c45da93a7835b319aa3c29  [shntool]  rd2008-11-14d1t06.flac
964cebe468b63cfe39b1127441dfa0a1  [shntool]  rd2008-11-14d1t07.flac
f07795c3b9865d9790ba4a37ec7e3ca0  [shntool]  rd2008-11-14d1t08.flac
f0bf976da87853fa0753956c9cf8f279  [shntool]  rd2008-11-14d1t09.flac
95bc2926b2dabd4eafad679e9a8ffaf8  [shntool]  rd2008-11-14d1t10.flac
17ada24ed86d1d022438c22087d1bb5c  [shntool]  rd2008-11-14d1t11.flac
c2358728c9dbe5a38496ce2595a46430  [shntool]  rd2008-11-14d2t01.flac
a2f886f158a2f240a9b6078c6905831f  [shntool]  rd2008-11-14d2t02.flac
3ecbf0be8b3ea46a93f07a60dcf6b913  [shntool]  rd2008-11-14d2t03.flac
c64224ab9a09f0a2c1f2025b06d3f2e8  [shntool]  rd2008-11-14d2t04.flac
d1b10ed7058216c543758e7eb621cd88  [shntool]  rd2008-11-14d2t05.flac
4dcf29a59e610e113fa509d5276fae9b  [shntool]  rd2008-11-14d2t06.flac
9e4b0990d720d96beb29db7981d20b03  [shntool]  rd2008-11-14d2t07.flac
d2d03010abdc6933688fc3bc685e07e7  [shntool]  rd2008-11-14d2t08.flac
41c152b5901022749cc055316f1e60ed  [shntool]  rd2008-11-14d2t09.flac
32f0296528029a5ae2cac353a57fae04  [shntool]  rd2008-11-14d3t01.flac
7d29a1162905a386506140c0c4154751  [shntool]  rd2008-11-14d3t02.flac
73c1ba62a20abd83532369bfc2039faf  [shntool]  rd2008-11-14d3t03.flac
be6a0f38ad1875fac95e97c335a30610  [shntool]  rd2008-11-14d3t04.flac
bba454fb14f00c1edcae9f6699240cf9  [shntool]  rd2008-11-14d3t05.flac
Show Checksums
ffp
rd2008-11-14d1t01.flac:974e361e73b526265e105dd1d2fb3e55
rd2008-11-14d1t02.flac:713a276301ac21747431fb8a4337ac34
rd2008-11-14d1t03.flac:e431709e65707a0363f1b8d963f674c4
rd2008-11-14d1t04.flac:e854f7445ac1b58e5f8c8d2a51206f94
rd2008-11-14d1t05.flac:2f79ee53e33d58e305af914193c5e8a6
rd2008-11-14d1t06.flac:17516f6068c45da93a7835b319aa3c29
rd2008-11-14d1t07.flac:964cebe468b63cfe39b1127441dfa0a1
rd2008-11-14d1t08.flac:f07795c3b9865d9790ba4a37ec7e3ca0
rd2008-11-14d1t09.flac:f0bf976da87853fa0753956c9cf8f279
rd2008-11-14d1t10.flac:95bc2926b2dabd4eafad679e9a8ffaf8
rd2008-11-14d1t11.flac:17ada24ed86d1d022438c22087d1bb5c
rd2008-11-14d2t01.flac:c2358728c9dbe5a38496ce2595a46430
rd2008-11-14d2t02.flac:a2f886f158a2f240a9b6078c6905831f
rd2008-11-14d2t03.flac:3ecbf0be8b3ea46a93f07a60dcf6b913
rd2008-11-14d2t04.flac:c64224ab9a09f0a2c1f2025b06d3f2e8
rd2008-11-14d2t05.flac:d1b10ed7058216c543758e7eb621cd88
rd2008-11-14d2t06.flac:4dcf29a59e610e113fa509d5276fae9b
rd2008-11-14d2t07.flac:9e4b0990d720d96beb29db7981d20b03
rd2008-11-14d2t08.flac:d2d03010abdc6933688fc3bc685e07e7
rd2008-11-14d2t09.flac:41c152b5901022749cc055316f1e60ed
rd2008-11-14d3t01.flac:32f0296528029a5ae2cac353a57fae04
rd2008-11-14d3t02.flac:7d29a1162905a386506140c0c4154751
rd2008-11-14d3t03.flac:73c1ba62a20abd83532369bfc2039faf
rd2008-11-14d3t04.flac:be6a0f38ad1875fac95e97c335a30610
rd2008-11-14d3t05.flac:bba454fb14f00c1edcae9f6699240cf9

Comments
Add Comment
Other Sources (comments)
flac16;DFC, behind... (0) flac16;source :... (0) flac16;MICS:... (0)
Date User Comment