Browse Collections Artists Sources   Search Dates

Add Show    List Management    Help


Grateful Dead 09/15/90
Madison Square Garden, New York, NY
Comments Add Comment    Source Collectors    Add to Collection    Add to Want List    History
Source # 97498 Other Sources
Entered by dr.unclear
Checksums flac-md5 , ffp
Disc Counts 2 / 3
Media Size
Date Circulated
Date Added
02/19/2009
02/18/2009
Source Summary flac16; matrix of SBD: shnid=89070 and DAUD: shnid=9047 by hansokolow using ProTools  
  Archive
Source Information - Download Text | Download Zip
Grateful Dead
Saturday, September 15th, 1990
Madison Square Garden
New York, NY

       cd1  -  set 1
1)  Touch Of Grey->
2)  Walking Blues
3)  Candyman
4)  Mama Tried->
5)  Mexicali Blues
6)  West L.A. Fadeaway
7)  When I Paint My Masterpiece
8)  Bird Song
9)  Box Of Rain

       cd2  -  set 2
1) (crowd/tuning)
2)  The Weight
3)  Playin' In The Band->
4)  Crazy Fingers->
5)  Uncle John's Band->
6)  Drums->

       cd3
1)  Space->
2)  Gimme Some Lovin'->
3)  All Along The Watchtower->
4)  Stella Blue->
5)  Throwing Stones->
6)  Not Fade Away
7)  One More Saturday Night

- Bruce Hornsby's first show as a member of the band
- final Gimme Some Lovin', and the only version performed without Brent

-------------------------------

This is a matrix, done by hansokolow in ProTools, of the following sources:

SBD: shnid=89070

Recording Info:
SBD -> Dat -> Cassette Master (TDK SA-X90)

Transfer Info:
Cassette Master (Nakamichi DR-1) -> Sound Devices 744T (24bit/48k) ->
Samplitude Professional v9.12 -> FLAC/16
(3 Discs Audio / 2 Discs FLAC)

All Transfers and Mastering By Charlie Miller
[email protected]
December 14, 2007

Notes:
-- Set 2 is seamless
-- Two different SBD Cassette Masters were used to make this show complete

-------------------------------

AUD: shnid=9047

FOB/DC 15th Row
MAD>D>CD
Recorded by Dave Brotman with Schoeps mics (model unknown)

-------------------------------

hansokolow's notes:  Charlie Miller mentions in his notes that two SBD cassette masters were used to make this SBD, but doesn't say where the cuts are, so I assume that some of the problems I found, which are minor, and only appear in set 2, are due to his patching.  His patching is done very well, it's just that the matrixing process makes these changes very apparent.  

- There's some weirdness in the first ten seconds or so of Crazy Fingers.
- There's a tiny bit of digifuzz on the DAUD that I cut out in Uncle John's Band at 1:16, and a split-second dropout on the SBD a few seconds later at 1:18.
- In Drums there is a spot of diginoise on the DAUD that I cut out at 7:28.
- At 1:07 in Space, the DAUD has a break, and then backs up several minutes and starts again.  I cut out the doubled section, but there is a couple of seconds of clicking where the join is, so I faded that out, so there are two seconds of SBD only there.
- There was some horrible feedback 4 minutes into the encore, and even though it happened in the room, I pulled it down, because it is awful and it was throwing my levels out of whack.
- Also, there are quite a lot of feedback problems on the vocals throughout the show.  Nothing I can do about that, though.

completed: 2/6/2009
[email protected]


    length     expanded size    cdr  WAVE problems  fmt   ratio  filename
     7:07.47       75433388 B   ---   --   ---xx  gd90-09-15d1t01.flac
     8:08.43       86184380 B   ---   --   ---xx  gd90-09-15d1t02.flac
     8:02.00       85024844 B   ---   --   ---xx  gd90-09-15d1t03.flac
     2:36.05       27530204 B   ---   --   ---xx  gd90-09-15d1t04.flac
     6:23.50       67678844 B   ---   --   ---xx  gd90-09-15d1t05.flac
     8:38.00       91375244 B   ---   --   ---xx  gd90-09-15d1t06.flac
     5:39.04       59809052 B   ---   --   ---xx  gd90-09-15d1t07.flac
    14:24.34      152489612 B   ---   --   ---xx  gd90-09-15d1t08.flac
     5:02.39       53364572 B   ---   --   ---xx  gd90-09-15d1t09.flac
     2:24.55       25531004 B   ---   --   ---xx  gd90-09-15d2t01.flac
     6:32.24       69205292 B   ---   --   ---xx  gd90-09-15d2t02.flac
     8:46.01       92788796 B   ---   --   ---xx  gd90-09-15d2t03.flac
     9:21.65       99113324 B   ---   --   ---xx  gd90-09-15d2t04.flac
     9:29.21      100421036 B   ---   --   ---xx  gd90-09-15d2t05.flac
    11:29.06      121553756 B   ---   --   ---xx  gd90-09-15d2t06.flac
    12:44.31      134842556 B   ---   --   ---xx  gd90-09-15d3t01.flac
     5:50.00       61740044 B   ---   --   ---xx  gd90-09-15d3t02.flac
     6:24.43       67838780 B   ---   --   ---xx  gd90-09-15d3t03.flac
    10:02.47      106303388 B   ---   --   ---xx  gd90-09-15d3t04.flac
     9:39.35      102217964 B   ---   --   ---xx  gd90-09-15d3t05.flac
    10:56.09      115739612 B   ---   --   ---xx  gd90-09-15d3t06.flac
     5:30.53       58336700 B   ---   --   ---xx  gd90-09-15d3t07.flac
   175:13.12     1854522392 B                            0.5796  (22 files)
Show Checksums
flac-md5
cf36899c7baf529f20e72d996ba1f1f2 *gd90-09-15d1t01.flac
02ca97ae72769c9d15d7818b2515ef9e *gd90-09-15d1t02.flac
45c3b85ee9a7c05b22f1b42a629bb663 *gd90-09-15d1t03.flac
3d110215e8faa03f9d30f78ad64796b8 *gd90-09-15d1t04.flac
864706030e120cc5a6706de093dd082d *gd90-09-15d1t05.flac
89ae13d461e72e71417d7b524ff14c1c *gd90-09-15d1t06.flac
2ef2f7dae3631da10e9b8a37508738e7 *gd90-09-15d1t07.flac
2e04e5992654d2f34af42f127d15b52b *gd90-09-15d1t08.flac
2f7f07fa866fcbceb95dfc392005f9e5 *gd90-09-15d1t09.flac
1ba4aa420a4f93319173886354a9266c *gd90-09-15d2t01.flac
dfb6e987ecb7b8aec25799d398833183 *gd90-09-15d2t02.flac
d3ea85164f583d04b0347022e98d1ebe *gd90-09-15d2t03.flac
d5981ca2de5b6dd70934f8eec1bd2775 *gd90-09-15d2t04.flac
1909be3644f33ef690f8f690e771c20b *gd90-09-15d2t05.flac
5efde542704c16e33bc73cb6a93f599d *gd90-09-15d2t06.flac
d7ccb2feab608dee0f51e88d214776c0 *gd90-09-15d3t01.flac
0c175d3c4ed62dcc7b5e4eb6f7827a8a *gd90-09-15d3t02.flac
d7b2f8da32f8a84a78a515bd1d033f42 *gd90-09-15d3t03.flac
06b8fd26043087d2366cab158a700762 *gd90-09-15d3t04.flac
0898ad0275fd2b33cc375673a0aed79b *gd90-09-15d3t05.flac
cbda741b3e928781e0fc2f8dae9c33bb *gd90-09-15d3t06.flac
723a4a8321d1393d3886a542057eef62 *gd90-09-15d3t07.flac
ffp
gd90-09-15d1t01.flac:491fe5dcd7d408650fae9576f7b3ee47
gd90-09-15d1t02.flac:cf752a163a43535dbff4d38333d39601
gd90-09-15d1t03.flac:d1fa498b80802a3e30ddc525d8ec7824
gd90-09-15d1t04.flac:57e5377ad0cdb64d1bf21e8ea65d219e
gd90-09-15d1t05.flac:7db692adc2f70be2e2d0126514f4c9a5
gd90-09-15d1t06.flac:1753099f169837a1b81d3d4c18bbb331
gd90-09-15d1t07.flac:5fc90de296bf09c4c975da8a6232f0fc
gd90-09-15d1t08.flac:e4e646c03cdb953573f571f16fe88246
gd90-09-15d1t09.flac:d65cc17243240f7d342fd05dab7c4cee
gd90-09-15d2t01.flac:afcc8f4e2c495b543259a96a9177d212
gd90-09-15d2t02.flac:b3fbc2808c597de70e365da1c5d75e17
gd90-09-15d2t03.flac:23aabcf25fe2bad8978781238b304c5b
gd90-09-15d2t04.flac:8d227457a3a17a407f30e1c241280a9d
gd90-09-15d2t05.flac:eedd05a4f78f558ea65e81cb74e1dcce
gd90-09-15d2t06.flac:203c583651f08d1c99b6642d07312e21
gd90-09-15d3t01.flac:b10dcbe9ccc1b71f60ca368c81c976a4
gd90-09-15d3t02.flac:acb3bd137375cc88972cd2781383b238
gd90-09-15d3t03.flac:3ee4df4054100d91a5f0d4b1e6a27365
gd90-09-15d3t04.flac:7f0178832ab2378c8d2593afb0088323
gd90-09-15d3t05.flac:a65ff6b9ff45006a0e8cc459437595ab
gd90-09-15d3t06.flac:ef528f1361652036367767bb51179e44
gd90-09-15d3t07.flac:d8e28a38745d799fd75abc0046c837c1

Comments
Add Comment
Other Sources (comments)
DSBD> Sony SDT-9000> VDAT>... (4) analog sbd>dat>cd>eac>cd;... (1) Recorded by Dave Brotman:... (4) flac16; source: dsbd... (2) flac16; SBD -> Dat... (0) flac16; Ambient... (1) flac16; Recording... (0) flac16; Sennheiser... (0) flac16; OTS AUD:... (0) flac16; Master... (0) flac24; Master... (0) flac16; Master... (0) flac24; Master... (0) flac16/48kHz; Master... (0)
Date User Comment