Browse Collections Artists Sources   Search Dates

Add Show    List Management    Help


Grateful Dead 12/18/73
Curtis Hixon Convention Hall, Tampa, FL
Comments Add Comment    Source Collectors    Add to Collection    Add to Want List    History
Source # 97511 Other Sources
Entered by Gary Field
Checksums ffp , flac-md5
Disc Counts 2 / 3
Media Size
Date Circulated
Date Added
02/19/2009
02/18/2009
Source Summary flac16; Recording Info: SBD -> Master Reel -> Dat (44.1k) Transfer Info: Dat (Sony R500) -> Sound Devices 744T -> Samplitude Professional v10.2 -> FLAC All Transfers and Mastering By Charlie Miller; Upgrade in circulation 
  Archive
Source Information - Download Text | Download Zip
Grateful Dead - December 18, 1973
Curtis Hixon Convention Hall - Tampa, FL

Recording Info:
SBD -> Master Reel -> Dat (44.1k)

Transfer Info:
Dat (Sony R500) -> Sound Devices 744T -> Samplitude Professional v10.2 -> FLAC
(3 Discs Audio / 2 Discs FLAC)

All Transfers and Mastering By Charlie Miller
[email protected]
February 18, 2009

Patch Info:
(FOB/12th Row) Shure Unidyne IV + AKG d1000e -> Cassette Master -> PCM supplies:
I Know You Rider (2:52 - 3:17)
Weather Report Suite (14:16 - 15:13)
Dark Star (21:26 - 21:30)
Wharf Rat (6:37 - 7:00)

Notes:
-- All disc changes are seamless
-- Dark Star contains a Mind Left Body jam
-- Patches aren't perfect but they're still good
-- Thanks to Rob Eaton for the Dats

Set 1:
d1t01 - Tennessee Jed
d1t02 - Me And My Uncle
d1t03 - Don't Ease Me In
d1t04 - Looks Like Rain
d1t05 - They Love Each Other
d1t06 - Me And Bobby McGee
d1t07 - Brown Eyed Women
d1t08 - Beat It On Down The Line
d1t09 - Peggy-O
d1t10 - El Paso
d1t11 - Deal
d1t12 - Jack Straw
d2t01 - China Cat Sunflower ->
d2t02 - I Know You Rider

Set 2:
d2t03 - Tuning
d2t04 - The Promised Land ->
d2t05 - Bertha
d2t06 - Greatest Story Ever Told
d2t07 - Row Jimmy
d2t08 - Weather Report Suite ->
d3t01 - Dark Star ->
d3t02 - Drums ->
d3t03 - Eyes Of The World ->
d3t04 - Wharf Rat ->
d3t05 - Sugar Magnolia

Encore:
d3t06 - Uncle John's Band


SHNTOOL OUTPUT:
    length     expanded size   cdr  WAVE problems filename
     8:37.04       91208252    ---   --   -----   gd73-12-18d1t01.wav
     2:58.04       31408652    ---   --   -----   gd73-12-18d1t02.wav
     4:00.53       42460700    ---   --   -----   gd73-12-18d1t03.wav
     7:39.21       81017036    ---   --   -----   gd73-12-18d1t04.wav
     6:00.48       63616940    ---   --   -----   gd73-12-18d1t05.wav
     7:32.48       79845740    ---   --   -----   gd73-12-18d1t06.wav
     5:03.61       53592716    ---   --   -----   gd73-12-18d1t07.wav
     3:39.30       38702204    ---   --   -----   gd73-12-18d1t08.wav
     5:46.74       61208492    ---   --   -----   gd73-12-18d1t09.wav
     4:25.40       46840124    ---   --   -----   gd73-12-18d1t10.wav
     5:11.01       54862796    ---   --   -----   gd73-12-18d1t11.wav
     5:04.62       53771468    ---   --   -----   gd73-12-18d1t12.wav
     8:49.64       93466172    ---   --   -----   gd73-12-18d2t01.wav
     5:16.71       55909436    ---   --   -----   gd73-12-18d2t02.wav
     0:57.35       10137164    ---   --   -----   gd73-12-18d2t03.wav
     3:14.08       34240460    ---   --   -----   gd73-12-18d2t04.wav
     6:00.45       63609884    ---   --   -----   gd73-12-18d2t05.wav
     5:02.16       53310476    ---   --   -----   gd73-12-18d2t06.wav
     9:22.66       99292076    ---   --   -----   gd73-12-18d2t07.wav
    16:18.25      172578044    ---   --   -----   gd73-12-18d2t08.wav
    21:33.41      228181676    ---   --   -----   gd73-12-18d3t01.wav
     1:58.56       20946956    ---   --   -----   gd73-12-18d3t02.wav
    14:02.12      148557068    ---   --   -----   gd73-12-18d3t03.wav
    10:01.54      106143452    ---   --   -----   gd73-12-18d3t04.wav
    10:19.13      109222220    ---   --   -----   gd73-12-18d3t05.wav
     7:15.24       76790492    ---   --   -----   gd73-12-18d3t06.wav
   186:13.01     1970920696 B                     (totals for 26 files)
Show Checksums
ffp
gd73-12-18d1t01.flac:ffe8be4036bcfe6ff7943a87519c9c83
gd73-12-18d1t02.flac:8d2f3fbf39ef52cc59204ac4d15d3626
gd73-12-18d1t03.flac:f76483ac5a1930e9fdaa2457925698c5
gd73-12-18d1t04.flac:c02f031ea723f38cf190cc333b40263d
gd73-12-18d1t05.flac:4aa693435b88a828c2303b4a029466e1
gd73-12-18d1t06.flac:44f07529192fe1f43ddcff793b248e8a
gd73-12-18d1t07.flac:cecb51672f4ad16fd7cfb4ee338afa01
gd73-12-18d1t08.flac:b600084324f2aa81c20f2ca3e5266f9e
gd73-12-18d1t09.flac:05893767541d6733ea21a925d9b0ddfb
gd73-12-18d1t10.flac:2d6d3e53d5f7c00bd72f7d3574876a7a
gd73-12-18d1t11.flac:4cb8c79fe056f76d97940571109afb66
gd73-12-18d1t12.flac:167cc5a65628e7c6f688a14786e4b6ef
gd73-12-18d2t01.flac:c4178ecddc80633715c1bc9ccb84983e
gd73-12-18d2t02.flac:ab4ff78ce5ffea2f566a3f76a588ac7c
gd73-12-18d2t03.flac:255219204365d4d81e0ef4152b1fadc1
gd73-12-18d2t04.flac:ec64723aff4801a63eb5f389ddd72275
gd73-12-18d2t05.flac:ada189912b4386594919b3c04cdc20cb
gd73-12-18d2t06.flac:07e6e92031db0032319eebacac2ee3fd
gd73-12-18d2t07.flac:9f9c09890397e85d4e6a025b32897b7d
gd73-12-18d2t08.flac:35efff011c705596096697a3b4727235
gd73-12-18d3t01.flac:1d4636169e3afe8e3af2dc07f4bac890
gd73-12-18d3t02.flac:5171214f6c067cba7f123e076c0badc7
gd73-12-18d3t03.flac:c5ed02726af1ca7d08915fc58ecae2ec
gd73-12-18d3t04.flac:a6968ac24d691c3627acc8d733ec2de0
gd73-12-18d3t05.flac:cf790e5e7da7170f30dbef77859c6f79
gd73-12-18d3t06.flac:a54ac5bbd264521be65d1eaa67c14dfe
flac-md5
9d99d8d301735baf8425fc7dc4e945b8 *gd73-12-18d1t01.flac
f466248493bd8ec843be3dbae54b9d91 *gd73-12-18d1t02.flac
b777c82900872fc31384d5ed93489470 *gd73-12-18d1t03.flac
96675280fcec132465a5b24831ac8f2e *gd73-12-18d1t04.flac
c409fe37c462af3c331894d1cf635523 *gd73-12-18d1t05.flac
0a1cdbd96a30032fcfc75ce0f66f9730 *gd73-12-18d1t06.flac
221c52456f11501845516e969ada16f1 *gd73-12-18d1t07.flac
1913717f1dae197ccd1c389b1fae47f8 *gd73-12-18d1t08.flac
2c9ea37221362a0c2fe4bf96745d619c *gd73-12-18d1t09.flac
a4b5d812c6de5a27e72ac331eed0aa0b *gd73-12-18d1t10.flac
8f72b4a4f4993332f149bdf76759c2f4 *gd73-12-18d1t11.flac
163935180b113012a94fd6d146e797c2 *gd73-12-18d1t12.flac
7c3961fb7f6a1137b5fb5d1fdb0e62b3 *gd73-12-18d2t01.flac
a2e9adca93b9de3aece9d2f28b5f4884 *gd73-12-18d2t02.flac
805327022dc7fb7b68af0d6d41623de4 *gd73-12-18d2t03.flac
52d10e2a14e7bf26c19b71fe1478863c *gd73-12-18d2t04.flac
9b2e00f41415bd44b0ecb67ed8c32000 *gd73-12-18d2t05.flac
4b979d785f40bd2e7b0d7bc917e0775f *gd73-12-18d2t06.flac
a9c637d501c2807ad29d78b565d9d1d0 *gd73-12-18d2t07.flac
96a14263f3fd781e83ec6ced1b3f7b90 *gd73-12-18d2t08.flac
d49f75cb97e0e1ce6d59973623077918 *gd73-12-18d3t01.flac
4747d468c0d201b9d6f5b63d0122fc75 *gd73-12-18d3t02.flac
0842d1e526a06b2ed0c69656bd2aaf67 *gd73-12-18d3t03.flac
e15601132dca6373cb2a635e82e1aa9a *gd73-12-18d3t04.flac
3ba08567e8f22ec653f1e297b15a4dbf *gd73-12-18d3t05.flac
81d110fa8cd90d6b2fcdc2a5d11eeb6f *gd73-12-18d3t06.flac

Comments
Add Comment
Other Sources (comments)
SBD Reel master > cassette... (9) SBD Reel master > cassette... (16) further retracking and... (3) flac16; Recording... (0) flac16; Audience... (0) flac16; matrix of... (0) flac16; 3 source... (1)
Date User Comment
03/03/2009 elevenfourteen73 encore can be moved to end of disc 1 so as not to break up
the WRS>Mag jam. Awesome upgrade!