Browse Collections Artists Sources   Search Dates

Add Show    List Management    Help


Grateful Dead 07/04/87
Sullivan Stadium, Foxboro, MA
Comments Add Comment    Source Collectors    Add to Collection    Add to Want List    History
Source # 97513 Other Sources
Entered by Matt Vernon
Checksums shn-md5 , st5
Disc Counts 1 / 1
Media Size
Date Circulated
Date Added

02/19/2009
Source Summary Soundboard > ? > SHN 
  Archive
Source Information - Download Text | Download Zip
Bob Dylan & the Dead     Foxboro       7/4/87

Sullivan Stadium / Foxboro, Massachusetts
Soundboard


t01 Intro
t02 The Times They Are A-Changin'
t03 Man Of Peace
t04 I'll Be Your Baby Tonight
t05 John Brown
t06 I Want You
t07 Ballad Of A Thin Man
t08 Stuck Inside Of Mobile With The Memphis Blues Again
t09 Queen Jane Approximately
t10 Chimes Of Freedom
t11 Slow Train
t12 Joey
t13 All Along The Watchtower
t14 Knockin' On Heaven's Door

    length     expanded size    cdr  WAVE problems  fmt   ratio  filename
     0:42.21        7458468 B   -b-   --   ---xx    shn  0.4000  gdbd87-07-04t01.shn
     4:50.35       51238364 B   ---   --   ---xx    shn  0.5286  gdbd87-07-04t02.shn
     4:32.41       48077276 B   ---   --   ---xx    shn  0.5156  gdbd87-07-04t03.shn
     5:02.14       53305772 B   ---   --   ---xx    shn  0.5427  gdbd87-07-04t04.shn
     6:22.32       67460108 B   ---   --   ---xx    shn  0.5587  gdbd87-07-04t05.shn
     4:08.30       43817804 B   ---   --   ---xx    shn  0.5923  gdbd87-07-04t06.shn
     5:44.00       60681644 B   ---   --   ---xx    shn  0.5376  gdbd87-07-04t07.shn
     5:36.17       59310428 B   ---   --   ---xx    shn  0.5962  gdbd87-07-04t08.shn
     5:23.37       57064268 B   ---   --   ---xx    shn  0.5667  gdbd87-07-04t09.shn
     6:03.54       64160252 B   ---   --   ---xx    shn  0.6174  gdbd87-07-04t10.shn
     4:41.04       49577852 B   ---   --   ---xx    shn  0.6026  gdbd87-07-04t11.shn
     9:28.69      100357532 B   ---   --   ---xx    shn  0.6249  gdbd87-07-04t12.shn
     4:32.02       47985548 B   ---   --   ---xx    shn  0.6239  gdbd87-07-04t13.shn
     6:39.10       70406932 B   -b-   --   ---xx    shn  0.6199  gdbd87-07-04t14.shn
    73:46.66      780902248 B                            0.5808  (14 files)
Show Checksums
shn-md5
d0f63741c5c268c3f8fa5435eb87fe0a *gdbd87-07-04t01.shn
9cb75686a5720d050ae313a3f24c4a1b *gdbd87-07-04t02.shn
dc54f47f34e90a5cc4461d2698a796f9 *gdbd87-07-04t03.shn
cbaac452bfde69faa98945f14d392980 *gdbd87-07-04t04.shn
10c6fd894a824cca3eca74951ed2d087 *gdbd87-07-04t05.shn
a5eb8c7351c1b9eb56c8dc989b82cfa3 *gdbd87-07-04t06.shn
4a585c6daee5aebc5b4a96e3335c66c9 *gdbd87-07-04t07.shn
6d2666f03d861aaabffab443d4079fdf *gdbd87-07-04t08.shn
bb6e09be720d37989790914d2915c782 *gdbd87-07-04t09.shn
bb9d1ea3f2fa69acfa189d4f0550c492 *gdbd87-07-04t10.shn
590ceb798444b8a69f21b095badc7e62 *gdbd87-07-04t11.shn
4cdbd6787a5a7da7ca750f91da06f968 *gdbd87-07-04t12.shn
23928a4be6c8abca59805c416b7e90ba *gdbd87-07-04t13.shn
811202cc4009e07e7bbe3e1fea2d4a18 *gdbd87-07-04t14.shn
st5
a2890c93e84f8b9ac3af48dcd9dc011a [shntool] gdbd87-07-04t01.shn
685c979f09462264480269d2531ce818 [shntool] gdbd87-07-04t02.shn
c54bc4503af6dfc5cd967feacf2e9f3b [shntool] gdbd87-07-04t03.shn
8e13ed1197b7c32250dfaaf073000fd7 [shntool] gdbd87-07-04t04.shn
ccf7d5b4ae2c104500b37322987fab0d [shntool] gdbd87-07-04t05.shn
473e19a0d03ed6b489251e1d19ea6546 [shntool] gdbd87-07-04t06.shn
09c6ffc638e1b68ebfa578b64d80fc03 [shntool] gdbd87-07-04t07.shn
76426514931eb9cd9acbe3a81c211b4b [shntool] gdbd87-07-04t08.shn
6e8c6f8f9b2c4072581ee30c6bb21e9d [shntool] gdbd87-07-04t09.shn
cae161618a1b04aa849d7423ebae379d [shntool] gdbd87-07-04t10.shn
91bce99e8dbca6572cb76a82e2ec1394 [shntool] gdbd87-07-04t11.shn
6d8e296bd0896873ba9fb1bbddbaf026 [shntool] gdbd87-07-04t12.shn
0d01b0117834bbc671a613ca41056d76 [shntool] gdbd87-07-04t13.shn
cb935821b098fbdbb49d7448b83f5378 [shntool] gdbd87-07-04t14.shn

Comments
Add Comment
Other Sources (comments)
FOB> aud> senn me80>... (1) FOB> aud> senn me80>... (0) flac16; AUD Source:... (0) flac16; Recording... (0) flac16; Master:... (0) flac24; source:... (0) flac16; Dan... (0) flac16; Matrix 2... (0) DTS-Audio-CD 5.1... (0) flac16/48kHz; 5.1... (0)
Date User Comment