Browse Collections Artists Sources   Search Dates

Add Show    List Management    Help


Derek Trucks Band 02/11/09
House Of Blues, Cleveland, OH
Comments Add Comment    Source Collectors    Add to Collection    Add to Want List    History
Source # 97518 Other Sources
Entered by Steve Blanchard
Checksums ffp
Disc Counts 2 / 2
Media Size
Date Circulated
Date Added

02/19/2009
Source Summary Schoeps CCM4V'S(din) FOB/DRFC 22' from stage @ 7' > Lunatec V2 > Sound Devices 722 (24/48) > Sound Forge 9.0 > CD Wave > flac(16), Recorded By: Z-Man 
Source Information - Download Text | Download Zip
Derek Trucks Band
House Of Blues
Cleveland, Ohio
2/11/2009

Source: Schoeps CCM4V'S(din)>Lunatec V2>Sound Devices 722 (24/48)
Location: FOB/DRFC/KFC/ZFC/AARP 22' From Stage, 7' High
DSP: Sound Devices 722>Sound Forge 9.0>CD Wave>flac(16)
Recorded By: Z-Man
Seeded By: Z-Man

Disc I

01 Down Don't Bother Me
02 Down In The Flood
03 Sahib Teri Bandi
04 I'll Find My Way >
05 Gonna Move
06 Band Introductions
07 Soul Of A Man >
08 Already Free
09 Meet Me At The Bottom

Disc II

01 Straight Life >
02 I Know
03 My Favorite Things >
04 Get Out Of My Life Woman
05 Up Above My Head
Encore:
06 Leavin' Trunk

Flac fingerprint

dtb2009-02-11d01t01.flac:efe111e7de3dd35301213997e7c0977e
dtb2009-02-11d01t02.flac:eb8d3de4f1065197bdf4b9f5b505ceaf
dtb2009-02-11d01t03.flac:3399cd36f590417c4780fd1ba43d23cf
dtb2009-02-11d01t04.flac:ff56ee666975c03971b034a2f78771a2
dtb2009-02-11d01t05.flac:e45650ce4b08e378b61c2048aaee3a45
dtb2009-02-11d01t06.flac:b29e71f47733ac2d46bd4f06c117f937
dtb2009-02-11d01t07.flac:2fed30cff48893e496956163701bc933
dtb2009-02-11d01t08.flac:15d637b81faa3adc023d809e24ec972e
dtb2009-02-11d01t09.flac:518ce84b3a2f70c6d6ed9b541db23466
dtb2009-02-11d02t01.flac:c37928e3614c626ed29624d6e1ac2a04
dtb2009-02-11d02t02.flac:4578e06cda70a7d4cdcd470104b09f2b
dtb2009-02-11d02t03.flac:fef6e0a8aac677355d98e522fc23d144
dtb2009-02-11d02t04.flac:7dac822cc2385adadd67fd120f3b0c91
dtb2009-02-11d02t05.flac:9cfca249b93ad082342823581961b202
dtb2009-02-11d02t06.flac:fd10a7f2c5dacd8910f8ce438c1aa621

shntool

    length     expanded size    cdr  WAVE problems  fmt   ratio  filename
     6:11.36       65529116 B   ---   --   ---xx   flac  0.5367  dtb2009-02-11d01t01.flac
     6:52.29       72745052 B   ---   --   ---xx   flac  0.5447  dtb2009-02-11d01t02.flac
    12:27.61      131914316 B   ---   --   ---xx   flac  0.3952  dtb2009-02-11d01t03.flac
     6:41.58       70872860 B   ---   --   ---xx   flac  0.5275  dtb2009-02-11d01t04.flac
     6:32.45       69254684 B   ---   --   ---xx   flac  0.5109  dtb2009-02-11d01t05.flac
     0:53.52        9471548 B   ---   --   ---xx   flac  0.4137  dtb2009-02-11d01t06.flac
     3:39.60       38772764 B   ---   --   ---xx   flac  0.3793  dtb2009-02-11d01t07.flac
     4:44.61       50241116 B   ---   --   ---xx   flac  0.3906  dtb2009-02-11d01t08.flac
     4:50.13       51186620 B   ---   --   ---xx   flac  0.4953  dtb2009-02-11d01t09.flac
    11:26.24      121066892 B   ---   --   ---xx   flac  0.4750  dtb2009-02-11d02t01.flac
     4:40.27       49455548 B   ---   --   ---xx   flac  0.5455  dtb2009-02-11d02t02.flac
    15:18.59      162074012 B   ---   --   ---xx   flac  0.4751  dtb2009-02-11d02t03.flac
    12:20.13      130566620 B   ---   --   ---xx   flac  0.5070  dtb2009-02-11d02t04.flac
     6:00.21       63553436 B   ---   --   ---xx   flac  0.5110  dtb2009-02-11d02t05.flac
     8:56.63       94698620 B   ---   --   ---xx   flac  0.5362  dtb2009-02-11d02t06.flac
   111:37.22     1181403204 B                            0.4861  (15 files)






Show Checksums
ffp
dtb2009-02-11d01t01.flac:efe111e7de3dd35301213997e7c0977e
dtb2009-02-11d01t02.flac:eb8d3de4f1065197bdf4b9f5b505ceaf
dtb2009-02-11d01t03.flac:3399cd36f590417c4780fd1ba43d23cf
dtb2009-02-11d01t04.flac:ff56ee666975c03971b034a2f78771a2
dtb2009-02-11d01t05.flac:e45650ce4b08e378b61c2048aaee3a45
dtb2009-02-11d01t06.flac:b29e71f47733ac2d46bd4f06c117f937
dtb2009-02-11d01t07.flac:2fed30cff48893e496956163701bc933
dtb2009-02-11d01t08.flac:15d637b81faa3adc023d809e24ec972e
dtb2009-02-11d01t09.flac:518ce84b3a2f70c6d6ed9b541db23466
dtb2009-02-11d02t01.flac:c37928e3614c626ed29624d6e1ac2a04
dtb2009-02-11d02t02.flac:4578e06cda70a7d4cdcd470104b09f2b
dtb2009-02-11d02t03.flac:fef6e0a8aac677355d98e522fc23d144
dtb2009-02-11d02t04.flac:7dac822cc2385adadd67fd120f3b0c91
dtb2009-02-11d02t05.flac:9cfca249b93ad082342823581961b202
dtb2009-02-11d02t06.flac:fd10a7f2c5dacd8910f8ce438c1aa621

Comments
Add Comment
Other Sources (comments)
Zoom H2 (balcony, dead... (0)
Date User Comment