Browse Collections Artists Sources   Search Dates

Add Show    List Management    Help


Grateful Dead 04/26/83
The Spectrum, Philadelphia, PA
Comments Add Comment    Source Collectors    Add to Collection    Add to Want List    History
Source # 97544 Other Sources
Entered by dr.unclear
Checksums ffp , flac-md5
Disc Counts 2 / 3
Media Size
Date Circulated
Date Added
02/20/2009
02/20/2009
Source Summary flac16; Recording Info: SBD -> Cassette Master -> Cassette -> Dat (48k) Transfer Info: Dat (Sony R500) -> Sound Devices 744T -> Adobe Audition v1.5 -> Samplitude Professional v10.2 -> FLAC; All Transfers and Mastering By Charlie Miller 
  Archive
Source Information - Download Text | Download Zip
Grateful Dead - April 26, 1983
The Spectrum - Philadelphia, PA

Recording Info:
SBD -> Cassette Master -> Cassette -> Dat (48k)

Transfer Info:
Dat (Sony R500) -> Sound Devices 744T -> Adobe Audition v1.5 ->
Samplitude Professional v10.2 -> FLAC
(3 Discs Audio / 2 Discs FLAC)

All Transfers and Mastering By Charlie Miller
[email protected]
February 19, 2009

Patch Info:
(FOB) Sennheiser Shotguns -> Cassette Master -> CD (shnid=28161) supplies:
Space (10:32 - 10:55)

Notes:
-- Set 2 is seamless
-- Static during Maybe You Know is from the PA
-- Nobody's Fault But Mine and Spoonful jam after Truckin'
-- This source sounds a bit clearer than the other circulating soundboards
-- Thanks to Ron Keyser for the Dat
-- Thanks to Joe B. Jones for his help with the pitch correction

Set 1:
d1t01 - Shakedown Street
d1t02 - New Minglewood Blues
d1t03 - They Love Each Other
d1t04 - Me And My Uncle ->
d1t05 - Mexicali Blues
d1t06 - Maybe You Know
d1t07 - West L.A. Fadeaway
d1t08 - My Brother Esau
d1t09 - It Must Have Been The Roses
d1t10 - Let It Grow

Set 2:
d2t01 - Help On The Way ->
d2t02 - Slipknot! ->
d2t03 - Franklin's Tower ->
d2t04 - Man Smart (Woman Smarter) ->
d2t05 - Drums ->
d3t01 - Space ->
d3t02 - Truckin' ->
d3t03 - Nobody's Fault But Mine/Spoonful Jam ->
d3t04 - Morning Dew ->
d3t05 - Throwing Stones ->
d3t06 - Not Fade Away

Encore:
d3t07 - U.S. Blues


SHNTOOL OUTPUT:
    length     expanded size   cdr  WAVE problems filename
    14:35.22      154401788    ---   --   -----   gd83-04-26d1t01.wav
     8:15.38       87407420    ---   --   -----   gd83-04-26d1t02.wav
     8:24.52       89027948    ---   --   -----   gd83-04-26d1t03.wav
     3:18.31       35000156    ---   --   -----   gd83-04-26d1t04.wav
     5:21.73       56796140    ---   --   -----   gd83-04-26d1t05.wav
     5:00.64       53070572    ---   --   -----   gd83-04-26d1t06.wav
     7:34.63       80233820    ---   --   -----   gd83-04-26d1t07.wav
     5:35.29       59162252    ---   --   -----   gd83-04-26d1t08.wav
     5:24.08       57172460    ---   --   -----   gd83-04-26d1t09.wav
    12:21.10      130735964    ---   --   -----   gd83-04-26d1t10.wav
     3:53.30       41171804    ---   --   -----   gd83-04-26d2t01.wav
     4:36.45       48792284    ---   --   -----   gd83-04-26d2t02.wav
     9:44.00      103017644    ---   --   -----   gd83-04-26d2t03.wav
     6:55.45       73311884    ---   --   -----   gd83-04-26d2t04.wav
    11:10.37      118275068    ---   --   -----   gd83-04-26d2t05.wav
    12:49.51      135771596    ---   --   -----   gd83-04-26d3t01.wav
     6:20.61       67175516    ---   --   -----   gd83-04-26d3t02.wav
     1:12.01       12703196    ---   --   -----   gd83-04-26d3t03.wav
    10:27.23      110656940    ---   --   -----   gd83-04-26d3t04.wav
     9:47.12      103575068    ---   --   -----   gd83-04-26d3t05.wav
     8:57.57       94860908    ---   --   -----   gd83-04-26d3t06.wav
     4:54.11       51887516    ---   --   -----   gd83-04-26d3t07.wav
   166:41.13     1764207944 B                     (totals for 22 files)
Show Checksums
ffp
gd83-04-26d1t01.flac:56f1c902e546bc405e57ffd5ab96df4b
gd83-04-26d1t02.flac:cacbb4e2dce8e5e770ed8dd9fe8ad8b0
gd83-04-26d1t03.flac:06c0ece7e0ee6e396c8f5a2d70809c80
gd83-04-26d1t04.flac:3228d4932f4561f74af553b222b2ed11
gd83-04-26d1t05.flac:d650e19316b7000c9fa7c49ef45c2dcd
gd83-04-26d1t06.flac:ba1718dbfdf744d3f13c9c76d66539f3
gd83-04-26d1t07.flac:9e7b1c0affdb8f38286bb11cbaada2dc
gd83-04-26d1t08.flac:8f2fdf01d52b92dda4d717ca87aac2a7
gd83-04-26d1t09.flac:7a216f503f0739b3ac4333ad25a00fea
gd83-04-26d1t10.flac:1c305c6ef456414c2cb312036bddb223
gd83-04-26d2t01.flac:98b83e6b1e048f4920beb246e0ae4e2a
gd83-04-26d2t02.flac:969f59bb5501e9f5368d797083f2f8ed
gd83-04-26d2t03.flac:29b091c34a8ccb30c1f255a6b78fb44c
gd83-04-26d2t04.flac:52662fb742b00dd46043f413fab35961
gd83-04-26d2t05.flac:ed8558b4cb25b77ab69769f9dea21281
gd83-04-26d3t01.flac:fb65fa8a5fc82ab0dfe105c323f97d3b
gd83-04-26d3t02.flac:d5402cd3fe3d0ed1acbb68735049b14c
gd83-04-26d3t03.flac:a8c4473b0acbfad6d68b0d2b6762c7e9
gd83-04-26d3t04.flac:b2d961b338804d3a27629f6c866cad70
gd83-04-26d3t05.flac:535e5ec64ab6128e9d7f051851c43de0
gd83-04-26d3t06.flac:50ec9eb6695744e9b8487d9129615200
gd83-04-26d3t07.flac:d1a5ed31c839c21fe37eecb4f8f40e80
flac-md5
58757198077aa0cabf1aba66e4277e8f *gd83-04-26d1t01.flac
389271b7cd864489ffe9f7447224efa8 *gd83-04-26d1t02.flac
f8844ae8a37325a8efb5b2fb3a1691ec *gd83-04-26d1t03.flac
ced193df77025ac90d237c89726f4399 *gd83-04-26d1t04.flac
01599e5c0488ae4206db5a0a6f2cdf90 *gd83-04-26d1t05.flac
7000a751de99a288822d66817df2dd2e *gd83-04-26d1t06.flac
e07d168f656ca16252adecbbac7e5e04 *gd83-04-26d1t07.flac
b4f2137f6e703c8052d1534ff09da159 *gd83-04-26d1t08.flac
df4f787dac9d6002f9a144e59014615e *gd83-04-26d1t09.flac
f799146f2eb10f5e99ee69961864d645 *gd83-04-26d1t10.flac
f7ecd7f9b475f334036b18037610dea8 *gd83-04-26d2t01.flac
698e05c80a6fb6eb6fe18c61ce82b9e6 *gd83-04-26d2t02.flac
255c45f8abf1b2b2f2bbc5c0696dca0e *gd83-04-26d2t03.flac
b61bdc640fbd66c5cf59579edbd38138 *gd83-04-26d2t04.flac
f2f53356d275159aa6d0b55b3d627f30 *gd83-04-26d2t05.flac
026d01840ada6c796a0b1ba1d1edba53 *gd83-04-26d3t01.flac
396d26c172f230374280a3acf2c1226e *gd83-04-26d3t02.flac
2d6eb96b5f08a5aaae63d19fad0744ab *gd83-04-26d3t03.flac
53b5b2aea89ba5d8bef78335a3fea43d *gd83-04-26d3t04.flac
7da3b47825c562b0dfe235c01a77fc2c *gd83-04-26d3t05.flac
63c0f695dce7688cee872d99f7e2b219 *gd83-04-26d3t06.flac
81e103365e791c480e9b82627dacf687 *gd83-04-26d3t07.flac

Comments
Add Comment
Other Sources (comments)
SBDMC> Cass> DAT> CDR> EAC>... (1) set2; Sennheiser shotguns >... (0) flac16; Unknown mics... (0) flac16; Seamless fix... (1) flac16; Source: 2... (0) flac16; 2 Source... (0) flac16/48kHz; Master... (0) flac16; MAC; (FOB)... (0) flac24; MAC; (FOB)... (0) flac24; Master... (0) flac16; Master... (0) flac16/44.1 Master... (0) flac24/48 Master... (0)
Date User Comment