Browse Collections Artists Sources   Search Dates

Add Show    List Management    Help


Grateful Dead 04/29/71
Fillmore East, New York, NY
Comments Add Comment    Source Collectors    Add to Collection    Add to Want List    History
Source # 97660 Other Sources
Entered by Matt Vernon
Checksums ffp , flac-md5
Disc Counts 2 / 3
Media Size
Date Circulated
Date Added
02/28/2009
02/27/2009
Source Summary flac16; matrix of SBD: shnid=33565 and AUD: shnid=26568 by hansokolow using ProTools  
  Archive
Source Information - Download Text | Download Zip
Grateful Dead   
Thursday, April 29th, 1971
Fillmore East   
New York, NY

        cd1  -  set 1
1)  Truckin'
2)  Bertha
3)  It Hurts Me To
4)  Cumberland Blues->
5)  Me And My Uncle
6)  Bird Song
7)  Playin' In The Band
8)  Loser
9)  Dark Hollow

        cd2
1)  Hard To Handle
2)  Ripple
3)  Me And My Bobby McGee
4)  Casey Jones

            -  set 2
5)  Morning Dew
6)  Minglewood Blues
7)  Sugar Magnolia
8)  Black Peter
9)  Beat It On Down The Line
10)  I Second That Emotion

        cd3
1)  Alligator->
2)  Drums->
3)  Alligator Jam->
4)  Goin' Down The Road Feeling Bad->
5)  Cold Rain And Snow
6)  China Cat Sunflower->
7)  I Know You Rider
8)  Greatest Story->
9)  Johnny B. Goode
10)    e1:  Uncle John's Band
11)        (Bill Graham Rap)
12)    e2:  Midnight Hour->
13)         And We Bid You Goodnight

- final show at the Fillmore East
- final performances of Alligator and I Second That Emotion

-----------------------------------

This is a matrix, done by hansokolow in ProTools, of the following sources:

SBD: shnid=33565

Source:
MSR > 7 inch (7.5 ips) Revox A 77 > Alesis Masterlink > CD-R

(hansokolow): short patch in Bird Song from shnid: 16782, Lineage:  (mostly) SB> MR> CD> EAC> Cool Edit> CDwav> CD

-----------------------------------

AUD: shnid=26568

Master audience reel (Taped by Marty Weinberg, AKG190E>Uher 400L) > Technics 1506 playback > Cardas audiophile cables > HHB CDR 800 master CD > CD > Plextor PX-708A extraction (EAC v0.95 prebeta 5) > tracking (CD Wave) > sector boundary verification (shntool v1.01) > .flac encoding  

Thanks to Dr. Michael Parrish for the sources
A > D by Steven Martin
Tracking and EAC > SHN by Jack Warner (jackmw1ATsbcglobalDOTnet)

-----------------------------------

hansokolow's notes:  There is so much work on this in terms of time/pitch adjustments and level adjustments that I cannot list them all.  It's been an ongoing project for a long time, as the quality of this AUD made it a very challenging show to matrix.  The main thing to know is that I made use of every bit of the AUD that is useable.  Most AUD tracks are missing the beginnings of songs and often the ends as well.  A string of songs  in the first set are also not present on the AUD:  Cumberland Blues, Me And My Uncle, Bird Song, and Playin'.  Those parts are, of course, all SBD.  The AUD is very inconsistent, clearly the mic was stuffed under someone's shirt at points, turned in different directions, etc.  I tried as best I could to account for that by changing the levels, but there is a fair amount of hiss on the AUD, so when the level is boosted, the hiss will be more present.  That's just how it is.  Also there are moments of a loud, obnoxious crowd, mostly notable in quiet parts like Dark Hollow and Ripple.  I tuned out a fair amount of the crowd in Ripple, as it is just distracting.  I tried to make this thing as smooth as I could, but some of the transitions when the AUD kicks in or out are still a bit jolting..

I went through a fair amount of confusion about the patches in Me And Bobby McGee and the transition between China Cat and Rider that were reportedly found on cassette from a master reel hidden at the Fillmore.  Until just now I thought I was making a big revelation that these are not actually patches from this night, but upon reading the notes on db.etree.org, I find that this is already known.  In any case, I decided to remove those sections and fade to the AUD only, so this is now, I believe, a totally complete version of this show.  The parts that are AUD only are from 2:32 to 3:22 of Me And Bobby McGee, and from 3:44 of China Cat to 0:09 of Rider, then again in Rider from 1:58 to 2:33.  As for the patch in Birdsong, that song is not present on the AUD, but I instead used the patch from a different SBD, shnid: 16782.  Midnight Hour has some scratchiness on the SBD that I left in, as going to the AUD only would be worse.  The cowbell is also quite strong in the AUD of this song, and I left that in, as there is always room for more cowbell.

Completed: 2/9/2009

-Tano
[email protected]


SHNTOOL:
    length     expanded size    cdr  WAVE problems  fmt   ratio  filename
    11:22.18      120347180 B   ---   --   ---xx  gd71-04-29d1t01.flac
    10:39.50      112837244 B   ---   --   ---xx  gd71-04-29d1t02.flac
     8:15.69       87480332 B   ---   --   ---xx  gd71-04-29d1t03.flac
     4:38.16       49076876 B   ---   --   ---xx  gd71-04-29d1t04.flac
     4:10.40       44194124 B   ---   --   ---xx  gd71-04-29d1t05.flac
    12:25.61      131561516 B   ---   --   ---xx  gd71-04-29d1t06.flac
     7:28.05       79039004 B   ---   --   ---xx  gd71-04-29d1t07.flac
    10:30.43      111233180 B   ---   --   ---xx  gd71-04-29d1t08.flac
     5:48.37       61474268 B   ---   --   ---xx  gd71-04-29d1t09.flac
    10:16.67      108820028 B   ---   --   ---xx  gd71-04-29d2t01.flac
     7:52.23       83314940 B   ---   --   ---xx  gd71-04-29d2t02.flac
     5:56.26       62859596 B   ---   --   ---xx  gd71-04-29d2t03.flac
     5:57.67       63132428 B   ---   --   ---xx  gd71-04-29d2t04.flac
    11:00.36      116508716 B   ---   --   ---xx  gd71-04-29d2t05.flac
     6:47.31       71867756 B   ---   --   ---xx  gd71-04-29d2t06.flac
     8:07.17       85946828 B   ---   --   ---xx  gd71-04-29d2t07.flac
    10:55.00      115542044 B   ---   --   ---xx  gd71-04-29d2t08.flac
     3:18.38       35016620 B   ---   --   ---xx  gd71-04-29d2t09.flac
     6:50.68       72483980 B   ---   --   ---xx  gd71-04-29d2t10.flac
     4:02.21       42738236 B   ---   --   ---xx  gd71-04-29d3t01.flac
     3:58.56       42114956 B   ---   --   ---xx  gd71-04-29d3t02.flac
     9:37.57      101916908 B   ---   --   ---xx  gd71-04-29d3t03.flac
     4:26.08       46941260 B   ---   --   ---xx  gd71-04-29d3t04.flac
     6:40.64       70710572 B   ---   --   ---xx  gd71-04-29d3t05.flac
     5:07.69       54317132 B   ---   --   ---xx  gd71-04-29d3t06.flac
     6:22.58       67521260 B   ---   --   ---xx  gd71-04-29d3t07.flac
     2:51.50       30282044 B   ---   --   ---xx  gd71-04-29d3t08.flac
     6:25.19       67958732 B   ---   --   ---xx  gd71-04-29d3t09.flac
     8:24.21       88955036 B   ---   --   ---xx  gd71-04-29d3t10.flac
     4:34.53       48458300 B   ---   --   ---xx  gd71-04-29d3t11.flac
     9:55.24      105014492 B   ---   --   ---xx  gd71-04-29d3t12.flac
     4:38.70       49203884 B   ---   --   ---xx  gd71-04-29d3t13.flac
   229:29.07     2428869472 B                            0.5513  (32 files)
Show Checksums
ffp
gd71-04-29d1t01.flac:436f4d684ce9abb8851352ca42c42513
gd71-04-29d1t02.flac:7ea80fcb0bf34881e6702abf431a838c
gd71-04-29d1t03.flac:a548a253dc23801cf2afd2fd2f8dce2b
gd71-04-29d1t04.flac:9d09f3a2655608d5cb0385107a57e0e4
gd71-04-29d1t05.flac:665266878834384fffca2f167c5c3e65
gd71-04-29d1t06.flac:3207eafa113f2d1c4abffb1185c93cbf
gd71-04-29d1t07.flac:092c22ddda99689898ef07e9a8aaa26d
gd71-04-29d1t08.flac:287434355c5311f24c61147ae83beb9e
gd71-04-29d1t09.flac:293fbe6c9adaacc1c5dfa8bb05e88e53
gd71-04-29d2t01.flac:8b04a202374f3f0e067397bd1636ebeb
gd71-04-29d2t02.flac:59661a60d85f0cd25dac91eba7f06179
gd71-04-29d2t03.flac:48e3b58e2a6ce8f3f61d1d13c6737ebb
gd71-04-29d2t04.flac:59707145149bfe543f7e3ca64a102c2a
gd71-04-29d2t05.flac:9533b2dc641ecd4048e9ecfa7289d696
gd71-04-29d2t06.flac:95e5f2fb1a34922a06e60de398efcaae
gd71-04-29d2t07.flac:deef6ee3e99a48cc793be71d528765bb
gd71-04-29d2t08.flac:28f1bf6607c551c459351071b0bbf72d
gd71-04-29d2t09.flac:b0c82d63202609f60e84c402d287d776
gd71-04-29d2t10.flac:888c9ec1887829845310e413a5cdfdeb
gd71-04-29d3t01.flac:0c5e173a0cb6dce5dcd421696e0e8bf4
gd71-04-29d3t02.flac:32830cf187added82da686697996efe6
gd71-04-29d3t03.flac:cea6a179b9f37e9c656d2bfa8311a857
gd71-04-29d3t04.flac:c826a820f51a4176c26a58da36510329
gd71-04-29d3t05.flac:c80bc3823a57a74526fda01d82c97155
gd71-04-29d3t06.flac:416d7a5ba7bc4e35941fc81c742ea5ce
gd71-04-29d3t07.flac:f1ff68ec66181c02c165c86644882abf
gd71-04-29d3t08.flac:4f7644c20b92364ae9d6243c6b1fcd7f
gd71-04-29d3t09.flac:8303574d0f277b90ac8b97ffa8fc0bbd
gd71-04-29d3t10.flac:597df54db93799407b850540e8c52795
gd71-04-29d3t11.flac:bb13897c44a426e37d0a234378e44746
gd71-04-29d3t12.flac:18ed45b29045f2781e83f5363c18e800
gd71-04-29d3t13.flac:13f331a46961482912f9f325d716bbcb
flac-md5
437e4bdb1c19d928af960be03f2a9f4b *gd71-04-29d1t01.flac
930b853b7d754588e42deae60107870d *gd71-04-29d1t02.flac
c965f1d96abc8c50b1958b05f5616485 *gd71-04-29d1t03.flac
a23df58d38dca7a958d222a82d4a5f91 *gd71-04-29d1t04.flac
c830a97bd344027bd6aed5154a29928d *gd71-04-29d1t05.flac
9500a9d40a667a478f72e5c549d1942e *gd71-04-29d1t06.flac
c26e00664f685e1faf301335898e0f50 *gd71-04-29d1t07.flac
6d84cb28abca653a89ead6236d1127e3 *gd71-04-29d1t08.flac
b66d022c1dd79b33131006410c6a0f42 *gd71-04-29d1t09.flac
f5c183b0e37e5a2d608b0afeaa0ebe41 *gd71-04-29d2t01.flac
58465b67588d92e5f98363afe5b71e8e *gd71-04-29d2t02.flac
07d3dd618bc893b0bcab7b8d56d92486 *gd71-04-29d2t03.flac
8a10061faa734480814060d758c9b3ba *gd71-04-29d2t04.flac
e9141147dabac921cf2fb08b4a57c8ef *gd71-04-29d2t05.flac
915371ce9977dd9772570d8411a6fc06 *gd71-04-29d2t06.flac
e34510a2cb07f53c9850bdc2886895e3 *gd71-04-29d2t07.flac
889fb6488496784df84b0fc39c0f3da7 *gd71-04-29d2t08.flac
ae5b24113a20fcecbd875fa02adb7663 *gd71-04-29d2t09.flac
eef07e67bcd3cee7ef80ad97ae32b499 *gd71-04-29d2t10.flac
d5f87d9354e403756259fbecc37d0fa2 *gd71-04-29d3t01.flac
5241632f00e89d34f8885da4376dd1d5 *gd71-04-29d3t02.flac
b4c24953a22fa8c63975e0a28750543d *gd71-04-29d3t03.flac
5a2d09487f5228fcb19a958f9b9b34fe *gd71-04-29d3t04.flac
72f106a6b433f1188708a2acc6cbed55 *gd71-04-29d3t05.flac
40030cd6084e82d88a7aa223dce46920 *gd71-04-29d3t06.flac
58a01831658150dc40283d00f895d6d2 *gd71-04-29d3t07.flac
e5db2fcb179b813f7cd7478ca6565e56 *gd71-04-29d3t08.flac
f8e34e6005bd27940ccac1c4973b0dd2 *gd71-04-29d3t09.flac
75cc0884110f605f38cac22f0fdbf007 *gd71-04-29d3t10.flac
e82658630fc5371aa74cf722d2502c20 *gd71-04-29d3t11.flac
b875cb0e3834a209af590252138656eb *gd71-04-29d3t12.flac
ae2c9f8db24304847165759c78bc4932 *gd71-04-29d3t13.flac

Comments
Add Comment
Other Sources (comments)
MR> R> DAT> CDR; note (0) complete, including NRPS;... (6) SBD>MR>CDR; includes NRPS;... (1) Lineage: (mostly) SB> MR>... (0) SBD > 8 track RTR @ 15... (3) flac16; Master... (0) fake version of the... (9) flac24; Recording... (1) flac16; Recording... (1) flac16; SBD [email protected] 7.5... (0) flac16; Recording... (0)
Date User Comment