Browse Collections Artists Sources   Search Dates

Add Show    List Management    Help


Allman Brothers Band 07/28/92
Lawlor Event Center, Reno, NV
Comments Add Comment    Source Collectors    Add to Collection    Add to Want List    History
Source # 97782 Other Sources
Entered by Matt Vernon
Checksums flac-md5 , ffp
Disc Counts 2 / 3
Media Size
Date Circulated
Date Added
01/15/2008
03/08/2009
Source Summary Source: unknown (sbd ?)>?>cdr
Lineage: trade cdr(x?) > wav (plextor plexwriter-premium/eac offset correct) > flac (flac frontend 1.7.1/verify/align on sb/level 6) 
Source Information - Download Text | Download Zip
Allman Brothers Band
1992-07-28
Lawler Event Center
Reno, NV

source:  unknown (sbd ?)>?>cdr
lineage: trade cdr(x?) > wav (plextor plexwriter-premium/eac offset correct) >
         flac (flac frontend 1.7.1/verify/align on sb/level 6)

    Disc 1:
01. Don't Want You No More
02. It's Not My Cross To Bear
03. Statesboro Blues
04. Blue Sky
05. Don't Keep Me Wonderin'
06. Nobody Knows
07. Black Hearted Woman
    (Dickey Betts leaves)
08. Midnight Rider (acoustic)
09. Melissa (acoustic)
10. Hoochie Coochie Man
11. Get On With Your Life

    Disc 2:
01. You Don't Love Me
02. Just Before The Bullets Fly
03. Southbound
04. Stormy Monday
05. Dreams
06. Whipping Post

Gregg Allman Lead vocals, Hammond B3 organ,electric piano
Dickey Betts * Lead guitar (Dickey Leaves half way through)
Butch Trucks Drums and percussion
Jaimoe         Drums
Warren Haynes Lead and slide guitar
Allen Woody Bass
Marc Quinones Percussion


    length     expanded size   cdr  WAVE problems filename
     3:40.28       38873900    ---   --   ---xx   abb1992-07-28d1t(01).flac
     4:54.05       51873404    ---   --   ---xx   abb1992-07-28d1t(02).flac
     6:19.27       66919148    ---   --   ---xx   abb1992-07-28d1t(03).flac
     8:50.02       93496748    ---   --   ---xx   abb1992-07-28d1t(04).flac
     4:27.49       47214092    ---   --   ---xx   abb1992-07-28d1t(05).flac
    13:11.14      139565372    ---   --   ---xx   abb1992-07-28d1t(06).flac
     7:27.37       78937868    ---   --   ---xx   abb1992-07-28d1t(07).flac
     3:48.55       40348604    ---   --   ---xx   abb1992-07-28d1t(08).flac
     5:39.04       59809052    ---   --   ---xx   abb1992-07-28d1t(09).flac
     7:53.48       83550140    ---   --   ---xx   abb1992-07-28d1t(10).flac
     7:05.05       74981804    ---   --   ---xx   abb1992-07-28d1t(11).flac
     6:33.25       69384044    ---   --   ---xx   abb1992-07-28d2t(01).flac
     5:50.17       61780028    ---   --   ---xx   abb1992-07-28d2t(02).flac
    16:52.67      178674428    ---   --   ---xx   abb1992-07-28d2t(03).flac
     7:42.22       81548588    ---   --   ---xx   abb1992-07-28d2t(04).flac
    11:37.62      123096668    ---   --   ---xx   abb1992-07-28d2t(05).flac
    11:58.50      126772844    ---   --   ---xx   abb1992-07-28d2t(06).flac
   133:51.67     1416826732 B                     (totals for 17 files, 0.6390 overall compression ratio)

abb1992-07-28d1t(01).flac:472a1f9ac4c9af828fe85eae85d4580d
abb1992-07-28d1t(02).flac:7a58ef1aef2214d388f2de72363b1c6e
abb1992-07-28d1t(03).flac:0735ea4aff20fb034d932d00e44c0288
abb1992-07-28d1t(04).flac:a638eda753aa3ea9954575f93320277b
abb1992-07-28d1t(05).flac:3eafaaad0f32d2ecb2c13c6513f6b39a
abb1992-07-28d1t(06).flac:f113dea1b9dc55b9d60c8f26db4a76fc
abb1992-07-28d1t(07).flac:51215886908d3a461424d452a627cd54
abb1992-07-28d1t(08).flac:3ee3aed2b2ba15afa346f671dac63e1a
abb1992-07-28d1t(09).flac:3d4cf4e37c798b78a0f443f9fa0d54dd
abb1992-07-28d1t(10).flac:8d5932064dff23e6949eb3c17b96cece
abb1992-07-28d1t(11).flac:c61cb13f6659f2791de8d23b951ce083
abb1992-07-28d2t(01).flac:e8f087683036c4796609be27f945380e
abb1992-07-28d2t(02).flac:f39e6c10fca787a1d7e50e9640a12f41
abb1992-07-28d2t(03).flac:c312167831611f66738af8b63fa28997
abb1992-07-28d2t(04).flac:05b03cb5d272fc8353a677dc49ab7950
abb1992-07-28d2t(05).flac:35a0227925442dc41cda3c079ae90692
abb1992-07-28d2t(06).flac:401c62ed78ffbb689167181c58fa7134

8ade5a8c3e577f54d3e46e8d0a278be6 *abb1992-07-28d1t(01).flac
aad09027dc4189866f52e64bfb30a3e9 *abb1992-07-28d1t(02).flac
d1f286e96b8bed6bded4eafe6b22fc47 *abb1992-07-28d1t(03).flac
200ca26570cbf4f24e5c548e51893dbc *abb1992-07-28d1t(04).flac
29ee71da825e3420855cad9909449591 *abb1992-07-28d1t(05).flac
5d7171ab1aa1040e6145f8e04bcb864d *abb1992-07-28d1t(06).flac
b02e33a4b01c8bd537352e98b5ff8492 *abb1992-07-28d1t(07).flac
e8eb4c6a94b0759590a6e25d1b72a333 *abb1992-07-28d1t(08).flac
ddbaf823832309e813c862cb34da3094 *abb1992-07-28d1t(09).flac
a828a455d223d8540c0c669882a9f8b3 *abb1992-07-28d1t(10).flac
d44646ebbaed38122397301227257504 *abb1992-07-28d1t(11).flac
ab683d9c925eace39f44fb31e92ad9ba *abb1992-07-28d2t(01).flac
72eb573a2537f59fbf1a63dd6abc9165 *abb1992-07-28d2t(02).flac
fb94532d4191f60b2725393dbcd3b6a3 *abb1992-07-28d2t(03).flac
c270b35a553603f450ad34b485f527f2 *abb1992-07-28d2t(04).flac
d97a7ea0a73f558db0839757a64eb8ff *abb1992-07-28d2t(05).flac
29fa659e287d2b0c278d3fa465b4b304 *abb1992-07-28d2t(06).flac

1/15/08 out to the basement gballen



Show Checksums
flac-md5
8ade5a8c3e577f54d3e46e8d0a278be6 *abb1992-07-28d1t(01).flac
aad09027dc4189866f52e64bfb30a3e9 *abb1992-07-28d1t(02).flac
d1f286e96b8bed6bded4eafe6b22fc47 *abb1992-07-28d1t(03).flac
200ca26570cbf4f24e5c548e51893dbc *abb1992-07-28d1t(04).flac
29ee71da825e3420855cad9909449591 *abb1992-07-28d1t(05).flac
5d7171ab1aa1040e6145f8e04bcb864d *abb1992-07-28d1t(06).flac
b02e33a4b01c8bd537352e98b5ff8492 *abb1992-07-28d1t(07).flac
e8eb4c6a94b0759590a6e25d1b72a333 *abb1992-07-28d1t(08).flac
ddbaf823832309e813c862cb34da3094 *abb1992-07-28d1t(09).flac
a828a455d223d8540c0c669882a9f8b3 *abb1992-07-28d1t(10).flac
d44646ebbaed38122397301227257504 *abb1992-07-28d1t(11).flac
ab683d9c925eace39f44fb31e92ad9ba *abb1992-07-28d2t(01).flac
72eb573a2537f59fbf1a63dd6abc9165 *abb1992-07-28d2t(02).flac
fb94532d4191f60b2725393dbcd3b6a3 *abb1992-07-28d2t(03).flac
c270b35a553603f450ad34b485f527f2 *abb1992-07-28d2t(04).flac
d97a7ea0a73f558db0839757a64eb8ff *abb1992-07-28d2t(05).flac
29fa659e287d2b0c278d3fa465b4b304 *abb1992-07-28d2t(06).flac
ffp
abb1992-07-28d1t(01).flac:472a1f9ac4c9af828fe85eae85d4580d
abb1992-07-28d1t(02).flac:7a58ef1aef2214d388f2de72363b1c6e
abb1992-07-28d1t(03).flac:0735ea4aff20fb034d932d00e44c0288
abb1992-07-28d1t(04).flac:a638eda753aa3ea9954575f93320277b
abb1992-07-28d1t(05).flac:3eafaaad0f32d2ecb2c13c6513f6b39a
abb1992-07-28d1t(06).flac:f113dea1b9dc55b9d60c8f26db4a76fc
abb1992-07-28d1t(07).flac:51215886908d3a461424d452a627cd54
abb1992-07-28d1t(08).flac:3ee3aed2b2ba15afa346f671dac63e1a
abb1992-07-28d1t(09).flac:3d4cf4e37c798b78a0f443f9fa0d54dd
abb1992-07-28d1t(10).flac:8d5932064dff23e6949eb3c17b96cece
abb1992-07-28d1t(11).flac:c61cb13f6659f2791de8d23b951ce083
abb1992-07-28d2t(01).flac:e8f087683036c4796609be27f945380e
abb1992-07-28d2t(02).flac:f39e6c10fca787a1d7e50e9640a12f41
abb1992-07-28d2t(03).flac:c312167831611f66738af8b63fa28997
abb1992-07-28d2t(04).flac:05b03cb5d272fc8353a677dc49ab7950
abb1992-07-28d2t(05).flac:35a0227925442dc41cda3c079ae90692
abb1992-07-28d2t(06).flac:401c62ed78ffbb689167181c58fa7134

Comments
Add Comment
Date User Comment