Browse Collections Artists Sources   Search Dates

Add Show    List Management    Help


Phish 03/08/09
Hampton Coliseum, Hampton, VA
Comments Add Comment    Source Collectors    Add to Collection    Add to Want List    History
Source # 97795 Other Sources
Entered by Jason Sobel
Checksums all_ffp
Disc Counts 2 / 3
Media Size
Date Circulated
Date Added
03/09/2009
03/09/2009
Source Summary (FOB) Schoeps CCM4V > Lunatec V2 > Benchmark AD2K > Sound Devices 722 (24/48); Sound Devices 722 > Sound Forge 9.0 (resample/dither to 16/44.1) > CD Wave > flac; Taped & Transferred by Z-Man 
Source Information - Download Text | Download Zip
Phish
Hampton Coliseum
Hampton, Virginia
3/8/2009

Source: Schoeps CCM4V'S(din)>Lunatec V2>Benchmark AD2K>
Sound Devices 722 (24/48)
Location: FOB/DFC/KFC/ZFC/AARP 42' From Stage, 6' High
DSP: Sound Devices 722>Sound Forge 9.0>CD Wave>flac(16)
Recorded By: Z-Man
Seeded By: Z-Man

Disc I 1st Set

01 Sanity >
02 Wilson
03 Foam
04 Bathtub Gin
05 Undermind
06 AC/DC Bag >
07 My Friend, My Friend
08 Scent of a Mule
09 All Of These Dreams
10 Maze
11 She Thinks I Still Care

Disc II 1st Set Con't

01 Army of One
02 Tube
03 Cars Trucks Buses >
04 Free
05 *Frankenstein
2nd Set:
06 Crowd
07 Down With Disease >
08 Seven Below
09 The Horse >
10 Silent In The Morning

Disc III 2nd Set Con't

01 Twist >
02 2001 >
03 Moma Dance
04 While My Guitar Gently Weeps
05 Wading In The Velvet Sea >
06 Slave To The Traffic Light
Encore:
07 Thank You
08 Happy Birthday Leonard Fishman
09 Contact
10 Bug >
11 Tweezer Reprise

* With Page On Keytar

Flac fingerprint

phish2009-03-08d01t01.flac:47c5d50c96175196cf4db3038c6ee77b
phish2009-03-08d01t02.flac:7aeeca51a2eff5fceef642321fb83fa2
phish2009-03-08d01t03.flac:d35a8ef2f8e31884fafd3b1a9c7536e2
phish2009-03-08d01t04.flac:e2e27d2af8360ef4c206c73c0bd17322
phish2009-03-08d01t05.flac:b755da18f708ca65146d51dc1e2d9f19
phish2009-03-08d01t06.flac:dfbf195185599105ecf86a9fed2c2518
phish2009-03-08d01t07.flac:2e6e8f234996543d6fa88ad74f4aedc5
phish2009-03-08d01t08.flac:e18f77a345799211adeb3944834a42e6
phish2009-03-08d01t09.flac:094ddcd9ebaa17db0628ff148e729fe2
phish2009-03-08d01t10.flac:2d3d51e1bfe35a05439d01e9835e8605
phish2009-03-08d01t11.flac:3f8d1ecd3f4ee3ae25bc411bd96030a6
phish2009-03-08d02t01.flac:c64fb39b8c71f42de6f2d7d878715d38
phish2009-03-08d02t02.flac:44d29abcc014e656c2d61d4b93865f1c
phish2009-03-08d02t03.flac:081a5772a14baa19bfd7cf9aa12d3dfe
phish2009-03-08d02t04.flac:9cd455a6686a5bff1d115dfc2ae490c7
phish2009-03-08d02t05.flac:cf3582aeb4b29da70dd895d92ee684c4
phish2009-03-08d02t06.flac:ae3ef3122de87f5ec5c0f9110a434ac6
phish2009-03-08d02t07.flac:4fab26ecc01614cd71c5cff2642614b1
phish2009-03-08d02t08.flac:c93db60cb729dcca15bc979a75358a2f
phish2009-03-08d02t09.flac:e757edb904536e72abc6fb8dc8bda58d
phish2009-03-08d02t10.flac:7fd98fc3be0409397ae3adcd53b398f1
phish2009-03-08d03t01.flac:c1dc4a875668ead34a98e2de39786e91
phish2009-03-08d03t02.flac:e072a0513250178e18561c616edfd5b8
phish2009-03-08d03t03.flac:3bb0ee4a9afa48d0cec9dea59fd9f927
phish2009-03-08d03t04.flac:1e26dd207f1e25382d7bb7f15e7ce0e0
phish2009-03-08d03t05.flac:8ef9eee67b3551e084ca61d71b3f621d
phish2009-03-08d03t06.flac:43c74d5e738f83048ec50f2d03f04722
phish2009-03-08d03t07.flac:be878391ddfb30c9ac19d3b7b50899ac
phish2009-03-08d03t08.flac:e202a08be372c1d537f55a516cd97c27
phish2009-03-08d03t09.flac:3d6f6efff842c7031667fa9dd92d4e6e
phish2009-03-08d03t10.flac:62991539f60c3f7f68d61fa5d293e0c3
phish2009-03-08d03t11.flac:e746f30c3e9018f05d85a2627328917a

shntool

length expanded size cdr WAVE problems fmt ratio filename
3:51.05 40760204 B --- -- ---xx flac 0.4900 phish2009-03-08d01t01.flac
5:00.64 53070572 B --- -- ---xx flac 0.5321 phish2009-03-08d01t02.flac
8:37.02 91203548 B --- -- ---xx flac 0.4843 phish2009-03-08d01t03.flac
10:58.60 116212364 B --- -- ---xx flac 0.5111 phish2009-03-08d01t04.flac
7:29.29 79271852 B --- -- ---xx flac 0.4823 phish2009-03-08d01t05.flac
5:20.38 56537420 B --- -- ---xx flac 0.5292 phish2009-03-08d01t06.flac
6:25.28 67979900 B --- -- ---xx flac 0.5149 phish2009-03-08d01t07.flac
8:37.37 91285868 B --- -- ---xx flac 0.4719 phish2009-03-08d01t08.flac
4:01.36 42597116 B --- -- ---xx flac 0.4556 phish2009-03-08d01t09.flac
10:40.25 112954844 B --- -- ---xx flac 0.5224 phish2009-03-08d01t10.flac
4:30.09 47649212 B --- -- ---xx flac 0.4625 phish2009-03-08d01t11.flac
4:46.57 50584508 B --- -- ---xx flac 0.4741 phish2009-03-08d02t01.flac
6:06.68 64722380 B --- -- ---xx flac 0.5219 phish2009-03-08d02t02.flac
4:39.20 49262684 B --- -- ---xx flac 0.5053 phish2009-03-08d02t03.flac
8:33.37 90580268 B --- -- ---xx flac 0.5241 phish2009-03-08d02t04.flac
5:45.51 60977996 B --- -- ---xx flac 0.5686 phish2009-03-08d02t05.flac
1:10.27 12411548 B --- -- ---xx flac 0.3574 phish2009-03-08d02t06.flac
22:20.64 236526572 B --- -- ---xx flac 0.5208 phish2009-03-08d02t07.flac
7:42.49 81612092 B --- -- ---xx flac 0.4903 phish2009-03-08d02t08.flac
1:17.71 13749836 B --- -- ---xx flac 0.3562 phish2009-03-08d02t09.flac
4:58.57 52701308 B --- -- ---xx flac 0.4701 phish2009-03-08d02t10.flac
9:00.02 95260748 B --- -- ---xx flac 0.4923 phish2009-03-08d03t01.flac
6:16.07 66342908 B --- -- ---xx flac 0.5316 phish2009-03-08d03t02.flac
6:50.59 72462812 B --- -- ---xx flac 0.5372 phish2009-03-08d03t03.flac
6:32.46 69257036 B --- -- ---xx flac 0.5245 phish2009-03-08d03t04.flac
5:55.62 62767868 B --- -- ---xx flac 0.4858 phish2009-03-08d03t05.flac
9:52.13 104459420 B --- -- ---xx flac 0.4804 phish2009-03-08d03t06.flac
0:59.60 10548764 B --- -- ---xx flac 0.4199 phish2009-03-08d03t07.flac
0:36.59 6489212 B --- -- ---xx flac 0.4356 phish2009-03-08d03t08.flac
7:43.40 81767324 B --- -- ---xx flac 0.4572 phish2009-03-08d03t09.flac
6:50.05 72335804 B --- -- ---xx flac 0.5096 phish2009-03-08d03t10.flac
4:02.31 42761756 B --- -- ---xx flac 0.5481 phish2009-03-08d03t11.flac
207:35.18 2197105744 B 0.5023 (32 files)
Show Checksums
all_ffp
phish2009-03-08d01t01.flac:47c5d50c96175196cf4db3038c6ee77b
phish2009-03-08d01t02.flac:7aeeca51a2eff5fceef642321fb83fa2
phish2009-03-08d01t03.flac:d35a8ef2f8e31884fafd3b1a9c7536e2
phish2009-03-08d01t04.flac:e2e27d2af8360ef4c206c73c0bd17322
phish2009-03-08d01t05.flac:b755da18f708ca65146d51dc1e2d9f19
phish2009-03-08d01t06.flac:dfbf195185599105ecf86a9fed2c2518
phish2009-03-08d01t07.flac:2e6e8f234996543d6fa88ad74f4aedc5
phish2009-03-08d01t08.flac:e18f77a345799211adeb3944834a42e6
phish2009-03-08d01t09.flac:094ddcd9ebaa17db0628ff148e729fe2
phish2009-03-08d01t10.flac:2d3d51e1bfe35a05439d01e9835e8605
phish2009-03-08d01t11.flac:3f8d1ecd3f4ee3ae25bc411bd96030a6
phish2009-03-08d02t01.flac:c64fb39b8c71f42de6f2d7d878715d38
phish2009-03-08d02t02.flac:44d29abcc014e656c2d61d4b93865f1c
phish2009-03-08d02t03.flac:081a5772a14baa19bfd7cf9aa12d3dfe
phish2009-03-08d02t04.flac:9cd455a6686a5bff1d115dfc2ae490c7
phish2009-03-08d02t05.flac:cf3582aeb4b29da70dd895d92ee684c4
phish2009-03-08d02t06.flac:ae3ef3122de87f5ec5c0f9110a434ac6
phish2009-03-08d02t07.flac:4fab26ecc01614cd71c5cff2642614b1
phish2009-03-08d02t08.flac:c93db60cb729dcca15bc979a75358a2f
phish2009-03-08d02t09.flac:e757edb904536e72abc6fb8dc8bda58d
phish2009-03-08d02t10.flac:7fd98fc3be0409397ae3adcd53b398f1
phish2009-03-08d03t01.flac:c1dc4a875668ead34a98e2de39786e91
phish2009-03-08d03t02.flac:e072a0513250178e18561c616edfd5b8
phish2009-03-08d03t03.flac:3bb0ee4a9afa48d0cec9dea59fd9f927
phish2009-03-08d03t04.flac:1e26dd207f1e25382d7bb7f15e7ce0e0
phish2009-03-08d03t05.flac:8ef9eee67b3551e084ca61d71b3f621d
phish2009-03-08d03t06.flac:43c74d5e738f83048ec50f2d03f04722
phish2009-03-08d03t07.flac:be878391ddfb30c9ac19d3b7b50899ac
phish2009-03-08d03t08.flac:e202a08be372c1d537f55a516cd97c27
phish2009-03-08d03t09.flac:3d6f6efff842c7031667fa9dd92d4e6e
phish2009-03-08d03t10.flac:62991539f60c3f7f68d61fa5d293e0c3
phish2009-03-08d03t11.flac:e746f30c3e9018f05d85a2627328917a

Comments
Add Comment
Other Sources (comments)
(FOB) B&K 4022 > Sonosax... (0) FOB Schoeps mk4v > kc5 >... (0) (FOB) Neumann AK43's >... (0) (FOB) Neumann ak40 > lc3ka... (0) Microtech Gefell M210's >... (0) DPA 4011 TL's > Sound... (0) BSC1-K4 > Wmod Edirol R4... (0) Schoeps CCM41 > Sonosax... (0) Peluso cemc6/ck2 (15'... (0) DPA 4023 > Lunatec ACM V3 >... (0) Microtech Gefell M300 >... (0) Neumann KM 184 > [BA TMod]... (0) Schoeps mk41 > kc5 > cmc6 >... (0) (FOB) Schoeps MK4 > KC5 >... (0) LivePhish FLAC download;... (1) Schoeps MK41 > Nbox >... (0) MBHO KA500 HN > MBHO MBP... (0) AKG 483 > Lunatec V3 >... (0) Schoeps mk41 > KCY >... (0) Neumann km150's > Sound... (0) (FOB) Schoeps mk22 > kc5 >... (0) Nakamichi CM-1000/CP-101... (0) Schoeps MK41 > KC5 > CMC6 >... (0) Beyerdynamic MC930 > Fostec... (0) Schoeps mk41 > kc5 > cmc6 >... (1) Schoeps mk41 > Nbox+ >... (0) Busman Audio BSC1 K4 > BT... (0) Neumann skm184 > Sound... (0)
Date User Comment