Browse Collections Artists Sources   Search Dates

Add Show    List Management    Help


Garcia 11/15/81
Performing Arts Center, Providence, RI
Comments Add Comment    Source Collectors    Add to Collection    Add to Want List    History
Source # 97806 Other Sources
Entered by Joe Jupille
Checksums ffp , md5
Disc Counts 2 / 2
Media Size
Date Circulated
Date Added
03/09/2009
03/09/2009
Source Summary JGB, flac24: Tim Friend's 3x Nakamichi CM-300's (CP-1 cardioids) > Nakamichi 550 > Maxell UDXL-II. Mics hand held, 20th row right side orchestra. Transfer: MAC > Nakamichi DR-8 > Edirol FA-66 > Wavelab > CD-Wave > TLH > FLAC 2496. Transfer by Andrew F. 
Source Information - Download Text | Download Zip
JERRY GARCIA BAND
Ocean State Theater
Providence RI
11-15-1981

24bit/96kHz file-set

s1t01 crowd & tuning
s1t02 Sugaree
s1t03 Catfish John
s1t04 I Second That Emotion
s1t05 Valerie
s1t06 That's What Love Will Make You Do
s1t07 Tangled Up in Blue

s2t01 crowd & tuning
s2t02 Mission in the Rain
s2t03 The Harder They Come
s2t03 Russian Lullaby
s2t04 The Night They Drove Old Dixie Down
s2t05 Dear Prudence
s2t06 Midnight Moonlight

AUD: 3x Nakamichi CM-300's (CP-1 cardioids) > Nakamichi 550 >
Maxell UDXL-II. Mics hand held, 20th row right side orchestra.
Taped by Tim Friend.

Transfer: MAC > Nakamichi DR-8 > Edirol FA-66 > Wavelab >
CD-Wave > TLH > FLAC 2496. Transfer by Andrew F. March 2009

    length     expanded size    cdr  WAVE problems  fmt   ratio  filename
     1:14.067      42662444 B   cxx   --   ---xx   flac  0.5896  jgb1981-11-15s1t01.flac
    11:11.520     386795564 B   cxx   --   ---xx   flac  0.6156  jgb1981-11-15s1t02.flac
    10:27.213     361274924 B   cxx   --   ---xx   flac  0.6120  jgb1981-11-15s1t03.flac
    11:39.145     402707654 B   cxx   --   ---xx   flac  0.6206  jgb1981-11-15s1t04.flac
     7:25.707     256727084 B   cxx   --   ---xx   flac  0.6045  jgb1981-11-15s1t05.flac
    10:21.200     357811244 B   cxx   --   ---xx   flac  0.6167  jgb1981-11-15s1t06.flac
    11:33.701     399572030 B   cxx   --   ---xx   flac  0.6276  jgb1981-11-15s1t07.flac
     1:15.880      43706924 B   cxx   --   ---xx   flac  0.5701  jgb1981-11-15s2t01.flac
    12:17.893     425026604 B   cxx   --   ---xx   flac  0.6122  jgb1981-11-15s2t02.flac
    13:00.613     449633324 B   cxx   --   ---xx   flac  0.6162  jgb1981-11-15s2t03.flac
    16:38.468     575117816 B   cxx   --   ---xx   flac  0.5906  jgb1981-11-15s2t04.flac
     8:28.760     293045804 B   cxx   --   ---xx   flac  0.6100  jgb1981-11-15s2t05.flac
    14:00.200     483955244 B   cxx   --   ---xx   flac  0.6165  jgb1981-11-15s2t06.flac
     9:12.157     318042674 B   cxx   --   ---xx   flac  0.6257  jgb1981-11-15s2t07.flac
   138:46.526    4796079334 B                            0.6128  (14 files)

No errors occured.
Show Checksums
ffp
jgb1981-11-15s1t01.flac:fcdc1d8ddbc830d2312ab2cba2737d8a
jgb1981-11-15s1t02.flac:8d7ef40c3da5e35521e9a5eaf8fca08d
jgb1981-11-15s1t03.flac:bdb068de7971d4545d151965a40d6cc6
jgb1981-11-15s1t04.flac:6c8c2e64cc4cc62f08e808e123c21fc9
jgb1981-11-15s1t05.flac:f8fd1b167f14787497e3b4c1f4e403da
jgb1981-11-15s1t06.flac:2d5ad8daa4463f95b58edf20febc92d5
jgb1981-11-15s1t07.flac:304bfada454e0e9688a2db17af22a708
jgb1981-11-15s2t01.flac:25e23ea3858c22be44667c2f6582682d
jgb1981-11-15s2t02.flac:65bcb5d45919f894bbb65d1d95b805dc
jgb1981-11-15s2t03.flac:4ce6fd5b03a46c451a68eebae87604a2
jgb1981-11-15s2t04.flac:0f360bb90aad274c5982b3051ffb2f6a
jgb1981-11-15s2t05.flac:3c35a3b0a4505a88e82b452989063c87
jgb1981-11-15s2t06.flac:f2f733bff8eaab31bc0dc7002e8fb429
jgb1981-11-15s2t07.flac:0d104c4614f7009495cd8731e7608f2c
md5

3ffcea50333f2719fc9ee1984e3a54a6 *jgb1981-11-15s1t01.flac
0baa00c64b9bb7fb661eacd724b7702a *jgb1981-11-15s1t02.flac
14ac11d89ddcc2c7e597cc96d11e60f5 *jgb1981-11-15s1t03.flac
1de214967a709074773e1bdae09b0406 *jgb1981-11-15s1t04.flac
a76c15da336c4a6b93e9e72539c82e74 *jgb1981-11-15s1t05.flac
b063c4c47cf6646d04c8918aca4147f5 *jgb1981-11-15s1t06.flac
b8569bac21907c311414bf629a01987e *jgb1981-11-15s1t07.flac
c821298f4bdd1d00350ae4b00bcb602c *jgb1981-11-15s2t01.flac
5ebdb271a818265e5e4463466ea85b3a *jgb1981-11-15s2t02.flac
85056c4587420f7abb097b0e6cbd6212 *jgb1981-11-15s2t03.flac
3a68f4d2ce083dea012b6c6b5366d937 *jgb1981-11-15s2t04.flac
ec28b0d50b074db53a3c434c1b9750de *jgb1981-11-15s2t05.flac
595cca5d334686a66f1526a5f8eaf80f *jgb1981-11-15s2t06.flac
7142983dfaa0247efdb55e666c4bee39 *jgb1981-11-15s2t07.flac

Comments
Add Comment
Other Sources (comments)
Jerry Garcia Band: MAC... (2) JGB, flac16: Tim... (0) flac2496; Richie... (0) flac1644; Richie... (0)
Date User Comment