Browse Collections Artists Sources   Search Dates

Add Show    List Management    Help


Garcia 11/15/81
Performing Arts Center, Providence, RI
Comments Add Comment    Source Collectors    Add to Collection    Add to Want List    History
Source # 97807 Other Sources
Entered by Joe Jupille
Checksums ffp , md5
Disc Counts 2 / 2
Media Size
Date Circulated
Date Added
03/09/2009
03/09/2009
Source Summary JGB, flac16: Tim Friend's 3x Nakamichi CM-300's (CP-1 cardioids) > Nakamichi 550 > Maxell UDXL-II. Mics hand held, 20th row right side orchestra. Transfer: MAC > Nakamichi DR-8 > Edirol FA-66 > Wavelab > CD-Wave > R8Brain > TLH > FLAC 1644. Transfer by Andrew F. 
Source Information - Download Text | Download Zip
JERRY GARCIA BAND
Ocean State Theater
Providence RI
11-15-1981

Disc One - Set One (63:52)

01 crowd & tuning
02 Sugaree
03 Catfish John
04 I Second That Emotion
05 Valerie
06 That's What Love Will Make You Do
07 Tangled Up in Blue

Disc Two - Set Two (74:53)

01 crowd & tuning
02 Mission in the Rain
03 The Harder They Come
03 Russian Lullaby
04 The Night They Drove Old Dixie Down
05 Dear Prudence
06 Midnight Moonlight

AUD: 3x Nakamichi CM-300's (CP-1 cardioids) > Nakamichi 550 >
Maxell UDXL-II. Mics hand held, 20th row right side orchestra.
Taped by Tim Friend.

Transfer: MAC > Nakamichi DR-8 > Edirol FA-66 > Wavelab > CD-Wave >
R8Brain > TLH > FLAC 1644. Transfer by Andrew F. March 2009

    length     expanded size    cdr  WAVE problems  fmt   ratio  filename
     1:14.05       13065404 B   ---   --   ---xx   flac  0.4755  jgb1981-11-15d1t01.flac
    11:11.39      118456172 B   ---   --   ---xx   flac  0.5343  jgb1981-11-15d1t02.flac
    10:27.16      110640476 B   ---   --   ---xx   flac  0.5272  jgb1981-11-15d1t03.flac
    11:39.10      123327164 B   ---   --   ---xx   flac  0.5523  jgb1981-11-15d1t04.flac
     7:25.53       78622700 B   ---   --   ---xx   flac  0.5076  jgb1981-11-15d1t05.flac
    10:21.15      109579724 B   ---   --   ---xx   flac  0.5470  jgb1981-11-15d1t06.flac
    11:33.54      122372252 B   ---   --   ---xx   flac  0.5754  jgb1981-11-15d1t07.flac
     1:15.66       13385276 B   ---   --   ---xx   flac  0.4192  jgb1981-11-15d2t01.flac
    12:17.67      130164428 B   ---   --   ---xx   flac  0.5294  jgb1981-11-15d2t02.flac
    13:00.46      137700236 B   ---   --   ---xx   flac  0.5463  jgb1981-11-15d2t03.flac
    16:38.35      176129564 B   ---   --   ---xx   flac  0.4687  jgb1981-11-15d2t04.flac
     8:28.57       89745308 B   ---   --   ---xx   flac  0.5206  jgb1981-11-15d2t05.flac
    14:00.15      148211324 B   ---   --   ---xx   flac  0.5432  jgb1981-11-15d2t06.flac
     9:12.12       97401068 B   ---   --   ---xx   flac  0.5740  jgb1981-11-15d2t07.flac
   138:46.40     1468801096 B                            0.5322  (14 files)

No errors occured.
Show Checksums
ffp
jgb1981-11-15d1t01.flac:9fe2ebd244141360a56cb6ef1232c971
jgb1981-11-15d1t02.flac:fc18827dd5232d40ac275c361be99c0b
jgb1981-11-15d1t03.flac:689a5a2f568a6518f7cfd927cda83b11
jgb1981-11-15d1t04.flac:b004eef2920955ee619765f4d4734e94
jgb1981-11-15d1t05.flac:56d00a53372a938619cfed5140b8b171
jgb1981-11-15d1t06.flac:cf3635a149ae5dca2c17e9816ca18637
jgb1981-11-15d1t07.flac:03147f95d97b48c0e1a5611a7d0cf7c3
jgb1981-11-15d2t01.flac:a60cbcdb1eefe05e4fe93a8034d3b439
jgb1981-11-15d2t02.flac:70d219b212e60640410f3b03fa74e82f
jgb1981-11-15d2t03.flac:ff25f74026eeb60264f89357e5198064
jgb1981-11-15d2t04.flac:e2f27ab21fea8f62d137d1e4fb2e42ce
jgb1981-11-15d2t05.flac:e84617110cbd8c1e139ab0dbc8752e78
jgb1981-11-15d2t06.flac:1f9b55de9a1ffd64a78815268985837b
jgb1981-11-15d2t07.flac:8edf7c78aa1cb969732429a2a38b6baa
md5
36b298203ba16bb3fde7e5002cd9e7b5 *jgb1981-11-15d1t01.flac
ddcb8c0ae15fc1ded4925e8c17142c90 *jgb1981-11-15d1t02.flac
bc4a1df36aaf4f747c4f74e662693ef8 *jgb1981-11-15d1t03.flac
191b8f9790253a162bdb7e98b3bb7f58 *jgb1981-11-15d1t04.flac
0e3ddbea0f734d9f6dd9a206f6cea3b2 *jgb1981-11-15d1t05.flac
d677bb06a1ea8ebd47e9d7ac27c52186 *jgb1981-11-15d1t06.flac
2a00b8b9e63dd384d0a3a5aeb9fe0322 *jgb1981-11-15d1t07.flac
85b73d298400b65f8e44718b92141dca *jgb1981-11-15d2t01.flac
5c14e2a93373ae04787c566523da8372 *jgb1981-11-15d2t02.flac
50632b2684897f526f14bbc153663b81 *jgb1981-11-15d2t03.flac
5b5a4c52589f1f824c1a01c63de71bd9 *jgb1981-11-15d2t04.flac
0189e50bcffa9ef3d407c0db26795baa *jgb1981-11-15d2t05.flac
544bda574450aa40586e01afb2ce6539 *jgb1981-11-15d2t06.flac
5d249913ce40d6044ff0e1e43dc99107 *jgb1981-11-15d2t07.flac

Comments
Add Comment
Other Sources (comments)
Jerry Garcia Band: MAC... (2) JGB, flac24: Tim... (0) flac2496; Richie... (0) flac1644; Richie... (0)
Date User Comment