Browse Collections Artists Sources   Search Dates

Add Show    List Management    Help


Grateful Dead ??/??/73
Studio Rehearsals, Various, CA
Comments Add Comment    Source Collectors    Add to Collection    Add to Want List    History
Source # 97924 Other Sources
Entered by Matt Vernon
Checksums ffp , flac-md5
Disc Counts 1 / 1
Media Size
Date Circulated
Date Added
03/14/2009
03/16/2009
Source Summary flac16; Lineage: Unknown Studio Recording -> Sonic Solutions -> CD Transfer: CD -> EAC ->FLAC by Joe Samaritano 
  Archive
Source Information - Download Text | Download Zip
xx/xx/73 - Grateful Dead
Wake of the Flood Sessions - Garcia's Rough Mixes

Lineage:
Unknown Studio Recording -> Sonic Solutions -> CD

Transfer:
CD -> EAC ->FLAC by Joe Samaritano

t01 - Weather Report Suite
t02 - Let it Grow
t03 - China Doll

-Part of the KPFA Marathon broadcast on 2/22/2003.
-Thanks to David Gans for the CD.
-Pledge if you can at www.kpfa.org.

SHNTOOL OUTPUT:
    length     expanded size   cdr  WAVE problems filename
     5:52.29       62161052    ---   --   -----   gd73-xx-xxt01.wav
     7:52.38       83350220    ---   --   -----   gd73-xx-xxt02.wav
     3:34.44       37853132    ---   --   -----   gd73-xx-xxt03.wav
    17:19.36      183364404 B                     (totals for 3 files)

Show Checksums
ffp
gd73-xx-xxt01.flac:452a9dabc83f44b2ebae98499cc42509
gd73-xx-xxt02.flac:b7c754e209829ef620b8d93cb36800a9
gd73-xx-xxt03.flac:ec9f7e1c1947ffde0ee70824ab49f9aa
flac-md5
17d4bb09d37311270f9fd53c44188e87 *gd73-xx-xxt01.flac
74de78f82a882d4beff3f8a9e1f73687 *gd73-xx-xxt02.flac
a3979a5ec35b2980b9f931bab8682811 *gd73-xx-xxt03.flac

Comments
Add Comment
Date User Comment