Browse Collections Artists Sources   Search Dates

Add Show    List Management    Help


Grateful Dead 04/19/87
Irvine Meadows, Irvine, CA
Comments Add Comment    Source Collectors    Add to Collection    Add to Want List    History
Source # 98052 Other Sources
Entered by Matt Vernon
Checksums flac-md5 , ffp
Disc Counts 2 / 3
Media Size
Date Circulated
Date Added
03/22/2009
03/22/2009
Source Summary flac16; Audience Recording Master Audience Cassette; 2 x Sennheiser 441>Sony D5>D5>D5>Maxell MA-R 90 Taped by John Corso. Set I transfer and EAC by Johnny Kelly. Set II cassette transfer by Alex Ford. Edited and Mastered by Alex Ford. All audio from the collection of Mark McCue. 
  Archive
Source Information - Download Text | Download Zip
Grateful Dead
4/19/87 - Sunday
Irvine Meadows Amphitheatre
Irvine, CA

Source: Audience Recording

Lineage (Set  I): 1st Gen Audience Cassette; 2 x Sennheiser 441>Sony D5>D5>D5>
Standalone burner>CDR>EAC>.wav @ 16/44.1. Editing and Mastering in WaveLab 6.10 with UAD in 16/44.1.
CD Wave Editor>Trader's Little Helper>FLAC16 (level eight).

Lineage (Set II): Master Audience Cassette; 2 x Sennheiser 441>Sony D5>D5>D5>Maxell MA-R 90>Nakamichi Dragon>
Kind Kables RCA/XLR>Lunatec V3 @ 24/96>coax>Audiophile 2496>WaveLab 6.10>.wav @ 24/96.
Editing and Mastering in WaveLab 6.10 with UAD in 24/96. Waves L3 UltraMaximizer>.wav 16/44.1>
CD Wave Editor>Trader's Little Helper>FLAC16(level eight).

Location: ROB (right next to Healy) mics @ 12-15 feet.


Set I:

d1t01. crowd/tuning (0:19)
d1t02. Mississippi Half-Step Uptown Toodeloo > (7:08)
d1t03. Franklin's Tower (6:21)
d1t04. New Minglewood Blues (7:58)
d1t05. Ramble On Rose (7:27)
d1t06. Tons Of Steel (5:07)
d1t07. Box Of Rain (5:40)
d1t08. Cassidy (7:04)
d1t09. Alabama Getaway > (4:34)
d1t10. The Promised Land (4:10)


Set II:

d2t01. crowd/tuning (0:37)
d2t02. China Cat Sunflower > (5:42)
d2t03. I Know You Rider (6:00)
d2t04. Man Smart (Women Smarter) > (8:38)
d2t05. Black Muddy River (7:07)
d2t06. I Need A Miracle > (4:11)
d2t07. Cumberland Blues > (4:57)
d2t08. Drums > (9:39)
d3t01. Space > (7:31)
d3t02. The Other One > (6:26)
d3t03. Wharf Rat > (9:31)
d3t04. Not Fade Away > (8:09)
Encore:
d3t05. Not Fade Away > (0:45)
d3t06. Brokedown Palace (6:18)


-------------------------------------------------------

Mark McCue's comments:

"For the first outside shows of the year, it was just superb.
The scene was cool but the blacktop parking lot was super hot.
There were these guys and gals set up to the right of the entrance
in the parking lot serving up vegie stir fry and brown rice.
What a set up they had. It was the best parking lot catering ever to be consumed.
I ate that for 3 days. Thanks. A real big thanks goes to Johnny Corso for running mine
and Adam's deck for some real crisp masters. Thank you again.
The transfer of this night will hit you hard w/ pleasure. Thanks Albix and
all that you do. As always, enjoy these tunes and the pics".

Best regards to all, Mark McCue - March 21, 2009

Notes:

- Set I was pitch corrected to match the pitch in shnid 83734.
- Sets I and II were phase corrected.
- shnid 83734 supplies a patch in d1t07 Box Of Rain 05:13-05:40,
in d1t08 Cassidy from 00:00-00:17, in d2t08. Drums from 08:38-09:39.
and in d3t01. Space from 00:00-00:22.
- Alternate 2 CD-R tracking: Set I plus tracks d2t01 - d2t03 will
fit on one 80 min. CD-Rand d2t04 - d3t06 will fit on a second CD-R.
- All audio from the collection of Mark McCue.
- All photos taken during "Mississippi Half-Step".

---------------------------------------------------------

- Taped by John Corso

- Set I transfer and EAC by Johnny Kelly

- Set II cassette transfer by Alex Ford.

- Edited and Mastered by Alex Ford

- Tracked, flac'ed, and tagged by Alex Ford

- Brought To You By Live Music Preservation Project ( http://www.livemusicpreservationproject.com )

- contact [email protected]

-----------------------------------------------------------
    length     expanded size    cdr  WAVE problems  fmt   ratio  filename
     0:19.22        3403388 B   ---   --   -----    wav  1.0000  gd1987-04-19-corso-d1t01.wav
     7:08.36       75583916 B   ---   --   -----    wav  1.0000  gd1987-04-19-corso-d1t02.wav
     6:21.32       67283708 B   ---   --   -----    wav  1.0000  gd1987-04-19-corso-d1t03.wav
     7:58.04       84328652 B   ---   --   -----    wav  1.0000  gd1987-04-19-corso-d1t04.wav
     7:27.65       79003724 B   ---   --   -----    wav  1.0000  gd1987-04-19-corso-d1t05.wav
     5:07.15       54190124 B   ---   --   -----    wav  1.0000  gd1987-04-19-corso-d1t06.wav
     5:40.46       60084236 B   ---   --   -----    wav  1.0000  gd1987-04-19-corso-d1t07.wav
     7:04.60       74934764 B   ---   --   -----    wav  1.0000  gd1987-04-19-corso-d1t08.wav
     4:34.46       48441836 B   ---   --   -----    wav  1.0000  gd1987-04-19-corso-d1t09.wav
     4:10.36       44184716 B   ---   --   -----    wav  1.0000  gd1987-04-19-corso-d1t10.wav
     0:37.29        6595052 B   ---   --   -----    wav  1.0000  gd1987-04-19-corso-d2t01.wav
     5:42.42       60427628 B   ---   --   -----    wav  1.0000  gd1987-04-19-corso-d2t02.wav
     6:00.60       63645164 B   ---   --   -----    wav  1.0000  gd1987-04-19-corso-d2t03.wav
     8:38.62       91521068 B   ---   --   -----    wav  1.0000  gd1987-04-19-corso-d2t04.wav
     7:07.55       75452204 B   ---   --   -----    wav  1.0000  gd1987-04-19-corso-d2t05.wav
     4:11.65       44429324 B   ---   --   -----    wav  1.0000  gd1987-04-19-corso-d2t06.wav
     4:57.57       52524908 B   ---   --   -----    wav  1.0000  gd1987-04-19-corso-d2t07.wav
     9:39.53      102260300 B   ---   --   -----    wav  1.0000  gd1987-04-19-corso-d2t08.wav
     7:31.30       79627004 B   ---   --   -----    wav  1.0000  gd1987-04-19-corso-d3t01.wav
     6:26.26       68151596 B   ---   --   -----    wav  1.0000  gd1987-04-19-corso-d3t02.wav
     9:31.61      100867916 B   ---   --   -----    wav  1.0000  gd1987-04-19-corso-d3t03.wav
     8:09.06       86273756 B   ---   --   -----    wav  1.0000  gd1987-04-19-corso-d3t04.wav
     0:45.21        7987436 B   ---   --   -----    wav  1.0000  gd1987-04-19-corso-d3t05.wav
     6:18.71       66846236 B   ---   --   -----    wav  1.0000  gd1987-04-19-corso-d3t06.wav
   141:32.25     1498048656 B                            1.0000  (24 files)
Show Checksums
flac-md5
d6df76d2eb56a0a211732040dc48b30b *gd1987-04-19-corso-d1t01.flac
b0e2d9de6184aadb040547ca681fae37 *gd1987-04-19-corso-d1t02.flac
3c8faf7184692c5316c88e9c587f6326 *gd1987-04-19-corso-d1t03.flac
2f7b542ac4d0dc6886dad5f1162e5145 *gd1987-04-19-corso-d1t04.flac
626d95e0d1ca9e004615a9a02feda37e *gd1987-04-19-corso-d1t05.flac
6553337add81db85dfb6eea34d7faa2f *gd1987-04-19-corso-d1t06.flac
0cfde596d0232b71693a4eaea4b77a7b *gd1987-04-19-corso-d1t07.flac
1073215bb12577fb09b1c9dca515036a *gd1987-04-19-corso-d1t08.flac
9c89bc84909853b2c22f730c9d3f2d98 *gd1987-04-19-corso-d1t09.flac
0b2dd2def921d7dbcdd0196e7e6ff7cd *gd1987-04-19-corso-d1t10.flac
30179a8b534ba442b0755c1c136de0f5 *gd1987-04-19-corso-d2t01.flac
dc17e7d6fa6416a4ebc9969d3bcd9414 *gd1987-04-19-corso-d2t02.flac
6f57eb6cc97aa8bea1071b572ce256be *gd1987-04-19-corso-d2t03.flac
c957cd239384b8fffe6b95ff2ac1be44 *gd1987-04-19-corso-d2t04.flac
958c8c3fc91b547b15d10a0f02f91f0f *gd1987-04-19-corso-d2t05.flac
4bd5809482d7370adb79abb4ec12eaa9 *gd1987-04-19-corso-d2t06.flac
f16bc9861b1fcaa6035ea7b52bdb7949 *gd1987-04-19-corso-d2t07.flac
5ff724ab562b079d59d8ee9ce3a8b3d7 *gd1987-04-19-corso-d2t08.flac
abc6bb7f90380d4adbfd9225c12ab7a5 *gd1987-04-19-corso-d3t01.flac
7f148b4029cbced3327ec8095ed6c451 *gd1987-04-19-corso-d3t02.flac
dc1ed814f33cdb0d64ad7ec95ae78e4a *gd1987-04-19-corso-d3t03.flac
00bbcb9fedcb4324711c2a5d083d8042 *gd1987-04-19-corso-d3t04.flac
c72550b068a22c36e8d99a729b05a425 *gd1987-04-19-corso-d3t05.flac
0fe71fc056feb40593e22f5c83b07ead *gd1987-04-19-corso-d3t06.flac
ffp
gd1987-04-19-corso-d1t01.flac:e137d0448aa2deec85947dc775cb8bf7
gd1987-04-19-corso-d1t02.flac:a4c401b5fe7da86afeb8ba4907d87fcd
gd1987-04-19-corso-d1t03.flac:c10be6232d4d7167def76e7af0e08456
gd1987-04-19-corso-d1t04.flac:dafa8f905fcab393225b832dfc151dff
gd1987-04-19-corso-d1t05.flac:8a010b764c4a459b927006533b530bb1
gd1987-04-19-corso-d1t06.flac:84a289e70db28c96494fae355a1d440e
gd1987-04-19-corso-d1t07.flac:5cdd35629b0d198d42511bf36ec2a84d
gd1987-04-19-corso-d1t08.flac:5ce7a417b135994e9cfb2d2620790965
gd1987-04-19-corso-d1t09.flac:aaf05082a9bbe4bb760447877defe425
gd1987-04-19-corso-d1t10.flac:dd107828ef31423ebd72bba5c928b080
gd1987-04-19-corso-d2t01.flac:6b38de7db80e38073cb75742f70b124b
gd1987-04-19-corso-d2t02.flac:cca17dc1dce3d7d0ac38b3246921d3f0
gd1987-04-19-corso-d2t03.flac:b6c43489817bf5544adf95c89f02d765
gd1987-04-19-corso-d2t04.flac:de924dc125fa5424490436d09a79ef2d
gd1987-04-19-corso-d2t05.flac:887a305b3e8729b17752019f22b92913
gd1987-04-19-corso-d2t06.flac:1f16cbfa0bfd582026b87dd311273f77
gd1987-04-19-corso-d2t07.flac:2908189bbba4147d27205b247dc36dfd
gd1987-04-19-corso-d2t08.flac:4aaa4ab9659185d9383b35be994dd14b
gd1987-04-19-corso-d3t01.flac:be50388830f8d14e4ad01b4ca3ba6cf6
gd1987-04-19-corso-d3t02.flac:4ad9e2ce24744c4f4fe0ef9fa01ccc35
gd1987-04-19-corso-d3t03.flac:c294f3fcde4deb54e4a0f66201d0e922
gd1987-04-19-corso-d3t04.flac:74c7d8620cb793c14b20b04f4424aa2b
gd1987-04-19-corso-d3t05.flac:b969de7a9f0a33085c19f38caba0f93b
gd1987-04-19-corso-d3t06.flac:898a74c6d9c055cc2dd041ccd942e7fc

Comments
Add Comment
Other Sources (comments)
SBD > Cass Master > PCM >... (1) Healy Ultramix SBD/AUD> CM>... (0) Master Soundboard Casette >... (0) flac16; source:... (1) flac16; Recording... (0) flac16; Digital... (0) flac24; Recording... (0) flac16; Recording... (0)
Date User Comment