Browse Collections Artists Sources   Search Dates

Add Show    List Management    Help


Derek Trucks Band 02/14/09
Weis Center for the Performing Arts, Bucknell Univ, Lewisburg, PA
Comments Add Comment    Source Collectors    Add to Collection    Add to Want List    History
Source # 98135 Other Sources
Entered by Steve Blanchard
Checksums ffp , md5
Disc Counts 1 / 2
Media Size
Date Circulated
Date Added
03/26/2009
03/26/2009
Source Summary Source: aud > ECM-MS957s > WM-D6 > mac > Nakamichi DR-1 > Tascam HD-P2 > wav 24/96 > Adboe Audition > wavelab (with iZotope Ozone 4) > iZotope RX Advanced > wav 16/44.1 > CD Wave > TLH > Flac16, Taped by John Bleich 
  Archive
Source Information - Download Text | Download Zip
Derek Trucks Band
Weis Center for the Performing Arts
Bucknell University
Lewisburg, PA
02/14/2009


Source: aud > ECM-MS957s > WM-D6 > mac
Lineage: mac > Nakamichi DR-1 > Tascam HD-P2 > wav 24/96 > Adboe Audition > wavelab (with iZotope Ozone 4) >
                  iZotope RX Advanced > wav 16/44.1 > CD Wave > TLH > Flac16


Disc 1

01   crowd
02   Down In The Flood
03   Down Don't Bother Me
04   Don't Miss Me >
05   Soul Serenade
06   Get What You Deserve
07   band intros
08   Sahib Teri Bandi/Maki Madni
09   Get Out Of My Life Woman
10   Days Is Almost Gone
11   Already Free
12   Meet Me At The Bottom
13   Congas solo *


Disc 2

01   My Favorite Things
02   We're A Winner
03   crowd/chat

encore

04   Freddy's Dead


Notes:

- tape flip after "Sahib Teri Bandi/Maki Madni" crossfaded
- tape flip in "My Favorite Things" 12:47 - 12:58, patched with aud > edirol with onboard mics, taped by Bgreen
- seamless change between discs

Comments:

* Count M'Butu


---------------------------------------------------------

- Taped by John Bleich

- Transferred by Bgreen

- Edited by SIRMick

- First seeded to Lossless Legs - March 2009

- Brought To You By Live Music Preservation Project

- contact [email protected]

- www.livemusicpreservationproject.com

-----------------------------------------------------------

Shntool output:

    length     expanded size    cdr  WAVE problems  fmt   ratio  filename
     0:21.25        3763244 B   ---   --   ---xx   flac  0.5245  dtb2009-02-14d1t01.flac
     6:29.74       68793692 B   ---   --   ---xx   flac  0.6190  dtb2009-02-14d1t02.flac
     5:18.36       56179916 B   ---   --   ---xx   flac  0.6077  dtb2009-02-14d1t03.flac
     5:47.74       61384892 B   ---   --   ---xx   flac  0.5945  dtb2009-02-14d1t04.flac
     6:09.28       65157500 B   ---   --   ---xx   flac  0.5516  dtb2009-02-14d1t05.flac
     3:59.63       42307820 B   ---   --   ---xx   flac  0.6398  dtb2009-02-14d1t06.flac
     0:48.03        8474300 B   ---   --   ---xx   flac  0.5919  dtb2009-02-14d1t07.flac
    12:04.61      127857116 B   ---   --   ---xx   flac  0.5358  dtb2009-02-14d1t08.flac
    10:05.51      106841996 B   ---   --   ---xx   flac  0.5988  dtb2009-02-14d1t09.flac
     5:41.31       60225356 B   ---   --   ---xx   flac  0.6239  dtb2009-02-14d1t10.flac
     4:54.02       51866348 B   ---   --   ---xx   flac  0.5345  dtb2009-02-14d1t11.flac
     5:03.25       53508044 B   ---   --   ---xx   flac  0.5927  dtb2009-02-14d1t12.flac
     0:52.65        9325724 B   ---   --   ---xx   flac  0.5411  dtb2009-02-14d1t13.flac
    17:03.35      180539564 B   ---   --   ---xx   flac  0.5683  dtb2009-02-14d2t01.flac
     6:27.33       68344460 B   ---   --   ---xx   flac  0.6175  dtb2009-02-14d2t02.flac
     2:25.45       25683884 B   ---   --   ---xx   flac  0.5999  dtb2009-02-14d2t03.flac
    10:00.68      105999980 B   ---   --   ---xx   flac  0.6068  dtb2009-02-14d2t04.flac
   103:34.44     1096253836 B                            0.5859  (17 files)

Flac fingerprints:

dtb2009-02-14d1t01.flac:f74f20fe8346917e0f273feb9064b2dd
dtb2009-02-14d1t02.flac:7b5b8c3a6089368d33eb6e7eb6b26599
dtb2009-02-14d1t03.flac:f8c4e9484cca7ba8e251256f85d04947
dtb2009-02-14d1t04.flac:371a5b145610f64203f3b3448e7c465c
dtb2009-02-14d1t05.flac:9e6c72097677ded965f62f674691f009
dtb2009-02-14d1t06.flac:3dae0e6fa4dddbde4850ac1a305797d4
dtb2009-02-14d1t07.flac:7b8a44ec4b7135e3db27cd1f204d02ab
dtb2009-02-14d1t08.flac:b3b6a88daf5bd266a2f99910f3033108
dtb2009-02-14d1t09.flac:54151aad4397287d8aaaafd68f523d2f
dtb2009-02-14d1t10.flac:f0cd7d7598408632856b0a07e54d2f75
dtb2009-02-14d1t11.flac:979e34ef703e3ab971f4f804845291f1
dtb2009-02-14d1t12.flac:71a9fd87d2b439b1450b369e19b8093e
dtb2009-02-14d1t13.flac:1a4c0ac5e867b941578f116b50b86909
dtb2009-02-14d2t01.flac:0fb0fa5e1b3477747adcfa7d52ac8197
dtb2009-02-14d2t02.flac:b9ba398ad0ee04eb49e2658a5e0a48ae
dtb2009-02-14d2t03.flac:7bf3a63a4d5e22abfbc50046cb1bdb20
dtb2009-02-14d2t04.flac:c1195d86be58ec8fee4769b27c61143d

Md5s:

4cf57e76476b88c7c141d65d009f9aa1 *dtb2009-02-14d1t01.flac
dec77ad35c14d3578746fd61d592ea80 *dtb2009-02-14d1t02.flac
277aa66669bd622b1a76af685817dd53 *dtb2009-02-14d1t03.flac
ecb001491171baffe09df9d24257024b *dtb2009-02-14d1t04.flac
7878a35425bbfb7b71bf753fe8a4fd46 *dtb2009-02-14d1t05.flac
cc45b3fb3d7c76c0151e25d4d43117f8 *dtb2009-02-14d1t06.flac
daca1245b98f0cf4421546d7247ca3a9 *dtb2009-02-14d1t07.flac
ae9df199f3b6e2ae0b7f2a2b6519065d *dtb2009-02-14d1t08.flac
43fe8474e85670988312d162d8d9b27e *dtb2009-02-14d1t09.flac
635123995e697e7fab75262e2c681472 *dtb2009-02-14d1t10.flac
41135dc7d33aa348cc2722adb6083a83 *dtb2009-02-14d1t11.flac
7ad89aff819da218b04321b3632823fc *dtb2009-02-14d1t12.flac
acf17b698e0569321bc83d0760963d07 *dtb2009-02-14d1t13.flac
d1716de6622a1ada84410029ab123071 *dtb2009-02-14d2t01.flac
65fb5951084572256d10b0395089a953 *dtb2009-02-14d2t02.flac
6bb97cceff872f7367a6954ca2c8b09f *dtb2009-02-14d2t03.flac
abab23393e907f0e35ccc6b29e4f78d7 *dtb2009-02-14d2t04.flac

St5s:

f74f20fe8346917e0f273feb9064b2dd  [shntool]  dtb2009-02-14d1t01.flac
7b5b8c3a6089368d33eb6e7eb6b26599  [shntool]  dtb2009-02-14d1t02.flac
f8c4e9484cca7ba8e251256f85d04947  [shntool]  dtb2009-02-14d1t03.flac
371a5b145610f64203f3b3448e7c465c  [shntool]  dtb2009-02-14d1t04.flac
9e6c72097677ded965f62f674691f009  [shntool]  dtb2009-02-14d1t05.flac
3dae0e6fa4dddbde4850ac1a305797d4  [shntool]  dtb2009-02-14d1t06.flac
7b8a44ec4b7135e3db27cd1f204d02ab  [shntool]  dtb2009-02-14d1t07.flac
b3b6a88daf5bd266a2f99910f3033108  [shntool]  dtb2009-02-14d1t08.flac
54151aad4397287d8aaaafd68f523d2f  [shntool]  dtb2009-02-14d1t09.flac
f0cd7d7598408632856b0a07e54d2f75  [shntool]  dtb2009-02-14d1t10.flac
979e34ef703e3ab971f4f804845291f1  [shntool]  dtb2009-02-14d1t11.flac
71a9fd87d2b439b1450b369e19b8093e  [shntool]  dtb2009-02-14d1t12.flac
1a4c0ac5e867b941578f116b50b86909  [shntool]  dtb2009-02-14d1t13.flac
0fb0fa5e1b3477747adcfa7d52ac8197  [shntool]  dtb2009-02-14d2t01.flac
b9ba398ad0ee04eb49e2658a5e0a48ae  [shntool]  dtb2009-02-14d2t02.flac
7bf3a63a4d5e22abfbc50046cb1bdb20  [shntool]  dtb2009-02-14d2t03.flac
c1195d86be58ec8fee4769b27c61143d  [shntool]  dtb2009-02-14d2t04.flac
Show Checksums
ffp
dtb2009-02-14d1t01.flac:f74f20fe8346917e0f273feb9064b2dd
dtb2009-02-14d1t02.flac:7b5b8c3a6089368d33eb6e7eb6b26599
dtb2009-02-14d1t03.flac:f8c4e9484cca7ba8e251256f85d04947
dtb2009-02-14d1t04.flac:371a5b145610f64203f3b3448e7c465c
dtb2009-02-14d1t05.flac:9e6c72097677ded965f62f674691f009
dtb2009-02-14d1t06.flac:3dae0e6fa4dddbde4850ac1a305797d4
dtb2009-02-14d1t07.flac:7b8a44ec4b7135e3db27cd1f204d02ab
dtb2009-02-14d1t08.flac:b3b6a88daf5bd266a2f99910f3033108
dtb2009-02-14d1t09.flac:54151aad4397287d8aaaafd68f523d2f
dtb2009-02-14d1t10.flac:f0cd7d7598408632856b0a07e54d2f75
dtb2009-02-14d1t11.flac:979e34ef703e3ab971f4f804845291f1
dtb2009-02-14d1t12.flac:71a9fd87d2b439b1450b369e19b8093e
dtb2009-02-14d1t13.flac:1a4c0ac5e867b941578f116b50b86909
dtb2009-02-14d2t01.flac:0fb0fa5e1b3477747adcfa7d52ac8197
dtb2009-02-14d2t02.flac:b9ba398ad0ee04eb49e2658a5e0a48ae
dtb2009-02-14d2t03.flac:7bf3a63a4d5e22abfbc50046cb1bdb20
dtb2009-02-14d2t04.flac:c1195d86be58ec8fee4769b27c61143d
md5
4cf57e76476b88c7c141d65d009f9aa1 *dtb2009-02-14d1t01.flac
dec77ad35c14d3578746fd61d592ea80 *dtb2009-02-14d1t02.flac
277aa66669bd622b1a76af685817dd53 *dtb2009-02-14d1t03.flac
ecb001491171baffe09df9d24257024b *dtb2009-02-14d1t04.flac
7878a35425bbfb7b71bf753fe8a4fd46 *dtb2009-02-14d1t05.flac
cc45b3fb3d7c76c0151e25d4d43117f8 *dtb2009-02-14d1t06.flac
daca1245b98f0cf4421546d7247ca3a9 *dtb2009-02-14d1t07.flac
ae9df199f3b6e2ae0b7f2a2b6519065d *dtb2009-02-14d1t08.flac
43fe8474e85670988312d162d8d9b27e *dtb2009-02-14d1t09.flac
635123995e697e7fab75262e2c681472 *dtb2009-02-14d1t10.flac
41135dc7d33aa348cc2722adb6083a83 *dtb2009-02-14d1t11.flac
7ad89aff819da218b04321b3632823fc *dtb2009-02-14d1t12.flac
acf17b698e0569321bc83d0760963d07 *dtb2009-02-14d1t13.flac
d1716de6622a1ada84410029ab123071 *dtb2009-02-14d2t01.flac
65fb5951084572256d10b0395089a953 *dtb2009-02-14d2t02.flac
6bb97cceff872f7367a6954ca2c8b09f *dtb2009-02-14d2t03.flac
abab23393e907f0e35ccc6b29e4f78d7 *dtb2009-02-14d2t04.flac

Comments
Add Comment
Other Sources (comments)
Lineage: Edirol R-09HR... (0)
Date User Comment