Browse Collections Artists Sources   Search Dates

Add Show    List Management    Help


Outformation 01/23/09
Rhythm & Brews, Chattanooga, TN
Comments Add Comment    Source Collectors    Add to Collection    Add to Want List    History
Source # 98190 Other Sources
Entered by
Checksums ffp
Disc Counts 0 / 0
Media Size
Date Circulated
Date Added
01/27/09
03/30/2009
Source Summary SBD + (FOB) Schoeps MK21/KC5/M222?NT222 > SD744t > WaveLab > CDWav > Flac 
Source Information - Download Text | Download Zip
Outformation
Rhythm & Brews
Chattanooga, TN
2009-01-23

source: Schoeps mk21 > kc5 > m222 > nt222 + SBD(Soundcraft GB4) > 744t (24/48)
location: fob/dfc
transfer: 744t > wavelab5 > cdwave > wavelab5 > flac (8)
recorded & seeded: Charles Fox

Set 1 Disc 1
01 Intro/tuning
02 Edgewater >
03 Can\'t Change The Past
04 Fastburn
05 Into My Arms
06 SG
07 Winds
08 Faded Memory
09 Tennessee Before Daylight
10 Can\'t You See

Set 2 Disc 2
01 Intro/tuning
02 Eleventeen
03 90
04 \'Bout My Money >
05 Drums >
06 \'Bout My Money
07 No Doubt
08 Stone In My Shoe
09 Brand New
10 Titles Of Movies Will Not Appear On Bill >
11 Blue Ridge Mountain Sky >
12 Titles Of Movies Will Not Appear On Bill

set 2 disc 3
Encore:
01 Cry In Your Beer >
02 Long Hard Ride

shntool
    length     expanded size   cdr  WAVE problems filename
     0:37.44        6630332    ---   --   ---xx   out2009-01-23d1t01.flac
     4:54.33       51939260    ---   --   ---xx   out2009-01-23d1t02.flac
     8:43.39       92348972    ---   --   ---xx   out2009-01-23d1t03.flac
     9:53.00      104605244    ---   --   ---xx   out2009-01-23d1t04.flac
     6:57.25       73617644    ---   --   ---xx   out2009-01-23d1t05.flac
     5:06.45       54084284    ---   --   ---xx   out2009-01-23d1t06.flac
     8:11.33       86690060    ---   --   ---xx   out2009-01-23d1t07.flac
     5:55.59       62760812    ---   --   ---xx   out2009-01-23d1t08.flac
     7:22.51       78088796    ---   --   ---xx   out2009-01-23d1t09.flac
     9:40.04      102321452    ---   --   ---xx   out2009-01-23d1t10.flac
     1:28.25       15582044    ---   --   ---xx   out2009-01-23d2t01.flac
     3:21.58       35592860    ---   --   ---xx   out2009-01-23d2t02.flac
     9:56.23      105188540    ---   --   ---xx   out2009-01-23d2t03.flac
     7:06.38       75235820    ---   --   ---xx   out2009-01-23d2t04.flac
     2:53.15       30552524    ---   --   ---xx   out2009-01-23d2t05.flac
     2:26.22       25806188    ---   --   ---xx   out2009-01-23d2t06.flac
     7:59.51       84615596    ---   --   ---xx   out2009-01-23d2t07.flac
    12:46.61      135265916    ---   --   ---xx   out2009-01-23d2t08.flac
     5:57.50       63092444    ---   --   ---xx   out2009-01-23d2t09.flac
     9:23.56       99444956    ---   --   ---xx   out2009-01-23d2t10.flac
    10:05.20      106769084    ---   --   ---xx   out2009-01-23d2t11.flac
     3:37.52       38401148    ---   --   ---xx   out2009-01-23d2t12.flac
     7:33.41       80005676    ---   --   ---xx   out2009-01-23d3t01.flac
     5:27.32       57758108    ---   --   ---xx   out2009-01-23d3t02.flac
   157:26.52     1666397760 B                     (totals for 24 files, 0.5894 overall compression ratio)
Show Checksums
ffp
out2009-01-23d1t01.flac:6cc26ae250065e0df5933b2b0085208c
out2009-01-23d1t02.flac:e04fab03e0454dc61d1184f83cff5dca
out2009-01-23d1t03.flac:ae35c998bd6724c00caa08f60627e566
out2009-01-23d1t04.flac:0df96b43a6d3d8e0d8c1675397e94449
out2009-01-23d1t05.flac:a57c851cf9e828e8847d79905fab9665
out2009-01-23d1t06.flac:c1c94bd0eae1af8a47126d57c88fb1bb
out2009-01-23d1t07.flac:43a979bb842d72541e849dcaebbb67be
out2009-01-23d1t08.flac:df1f9fd84d99ee95e276b235d758be61
out2009-01-23d1t09.flac:c499f6a10eae5028bac78d5aa58425b2
out2009-01-23d1t10.flac:86e886d68ca73149fbdd5da49c943cb4
out2009-01-23d2t01.flac:567bc66593a75aa94bd8316a868fa525
out2009-01-23d2t02.flac:a7eb3879ba7ab2569d913ffd849fa74c
out2009-01-23d2t03.flac:37b5558b0fa2f72722c4d1fdf69d509c
out2009-01-23d2t04.flac:e1b767939b515758c02e6894c541101a
out2009-01-23d2t05.flac:99a5abb7818dc15e508c5acb22cf8cbe
out2009-01-23d2t06.flac:b85cb5d3686b100c7045827d7d2924db
out2009-01-23d2t07.flac:c6dd89d24eec32771a4bbcf3f039f961
out2009-01-23d2t08.flac:f9fd36ae775701fc186de0b4065f38e2
out2009-01-23d2t09.flac:6aa3bff861db595119d326b059cf9707
out2009-01-23d2t10.flac:770249669950d3049ab365002dda613f
out2009-01-23d2t11.flac:676cd8097d8e7367e76645c7f7cdd346
out2009-01-23d2t12.flac:7d21f4591aca67dd8cd8f1ee50afcfb2
out2009-01-23d3t01.flac:4b17854346482ed7d7d2b8debbcb67e7
out2009-01-23d3t02.flac:967192755bfce61e4ca4b5494cc18664

Comments
Add Comment
Date User Comment