Browse Collections Artists Sources   Search Dates

Add Show    List Management    Help


Grateful Dead 09/18/83
Nevada County Fairgrounds, Grass Valley, CA
Comments Add Comment    Source Collectors    Add to Collection    Add to Want List    History
Source # 98307 Other Sources
Entered by Matt Vernon
Checksums flac-md5 , ffp
Disc Counts 2 / 2
Media Size
Date Circulated
Date Added
04/09/2009
04/08/2009
Source Summary flac16; Nak 700's w/D5 and dbx fob dfc MAC>NakCR-3A>dbx224>hd>Audacity>CDwave>TLH; Recorded by Tazuo Yamaguchi and Jamie Poris, Transferred by Russ Cansler 
  Archive
Source Information - Download Text | Download Zip
Grateful Dead
September 18th,1983
Nevada County Fairgrounds
Grass Valley,California,USA

Nakamichi 700's with Sony TC-D5 FOB DFC Maxell XL-IIs 90 nr dbx II

Master>NakCR-3A>dbx224>hd>Audacity>CDWave>TLH
Recorded by Tazuo Yamaguchi and Jamie Poris
Transferred by Russ Cansler

Setlist   CD 1
first set
01) tuning [02:53]
02) JackStraw [06:07]
03) They Love Each Other [07:48]
04) Minglewood Blues [08:11]
05) Friend of the Devil [09:44]
06) Hell in a Bucket [05:48] tape flip
07) tuning [00:41]
08) Ramble On Rose [06:54]
09) Let It Grow [13:11]
second set
10) tuning [00:33]
11) Touch of Grey [06:35]
12) Samson and Delilah [07:10]
   total 75:43
            CD 2
01) Terrapin Station [16:00]
02) Drums [06:22] tape flip
03) Drums [01:57]
04) Space [13:50]
05) The Other One [08:25]
06) Wharf Rat [10:33]
07) Around and Around [03:49]
08) Sugar Magnolia [05:25] tape flip
09) Sunshine Daydream [03:02]
10) crowd [00:21]
  encore
11) It's All Over Now,Baby Blue [07:24]
   total 77:14

Jerry Garcia-Guitar,Vocals
Bob Weir-Guitar,Vocals
Phil Lesh-Bass
Billy Kreutzmann-Drums
Micky Hart-Percussion
Brent Mydland-Keyboards,Vocals

shntool 3.0.4
Copyright (C) 2000-2007 Jason Jordan

    length     expanded size    cdr  WAVE problems  fmt   ratio  filename
     2:53.69       30679532 B   ---   --   ---xx   flac  0.4752  gd83-09-18d1t01.flac
     6:07.50       64856444 B   ---   --   ---xx   flac  0.6764  gd83-09-18d1t02.flac
     7:48.43       82656380 B   ---   --   ---xx   flac  0.6327  gd83-09-18d1t03.flac
     8:11.19       86657132 B   ---   --   ---xx   flac  0.6632  gd83-09-18d1t04.flac
     9:44.43      103118780 B   ---   --   ---xx   flac  0.6201  gd83-09-18d1t05.flac
     5:48.65       61540124 B   ---   --   ---xx   flac  0.6905  gd83-09-18d1t06.flac
     0:41.41        7328876 B   ---   --   ---xx   flac  0.4332  gd83-09-18d1t07.flac
     6:54.07       73046108 B   ---   --   ---xx   flac  0.6468  gd83-09-18d1t08.flac
    13:11.26      139593596 B   ---   --   ---xx   flac  0.6760  gd83-09-18d1t09.flac
     0:33.52        5943548 B   ---   --   ---xx   flac  0.4463  gd83-09-18d1t10.flac
     6:35.29       69746252 B   ---   --   ---xx   flac  0.6760  gd83-09-18d1t11.flac
     7:10.66       76007276 B   ---   --   ---xx   flac  0.6709  gd83-09-18d1t12.flac
    16:00.51      169463996 B   ---   --   ---xx   flac  0.6444  gd83-09-18d2t01.flac
     6:22.48       67497740 B   ---   --   ---xx   flac  0.5584  gd83-09-18d2t02.flac
     1:57.43       20739980 B   ---   --   ---xx   flac  0.5184  gd83-09-18d2t03.flac
    13:50.17      146452028 B   ---   --   ---xx   flac  0.5404  gd83-09-18d2t04.flac
     8:25.37       89169068 B   ---   --   ---xx   flac  0.6687  gd83-09-18d2t05.flac
    10:33.03      111668300 B   ---   --   ---xx   flac  0.6289  gd83-09-18d2t06.flac
     3:49.49       40510892 B   ---   --   ---xx   flac  0.6588  gd83-09-18d2t07.flac
     5:25.01       57332396 B   ---   --   ---xx   flac  0.6851  gd83-09-18d2t08.flac
     3:02.28       32170700 B   ---   --   ---xx   flac  0.6694  gd83-09-18d2t09.flac
     0:21.52        3826748 B   ---   --   ---xx   flac  0.4641  gd83-09-18d2t10.flac
     7:24.08       78340460 B   ---   --   ---xx   flac  0.6208  gd83-09-18d2t11.flac
   152:54.22     1618346356 B                            0.6333  (23 files)
Show Checksums
flac-md5
fa8303737bf1a3f79781ae03ff62a89c *gd83-09-18d1t01.flac
2702a85de08741c9397da5b4da97cb12 *gd83-09-18d1t02.flac
a1562328ea7bc0b2fc44e7e2fdfacb55 *gd83-09-18d1t03.flac
b7b30cffdd318683f877bab66f75540e *gd83-09-18d1t04.flac
c530880bc83b81717d99dae460397c58 *gd83-09-18d1t05.flac
d819617ed28c0ea6f9e643c8953a5909 *gd83-09-18d1t06.flac
1720257e54f420b8f2f12d31cc8bd357 *gd83-09-18d1t07.flac
5e88cf81260e81c486ce9bf35229dcc4 *gd83-09-18d1t08.flac
f37e334ae2de68f2c0cbea6c8e487dac *gd83-09-18d1t09.flac
3e0719b1a44e31a3845176159f70d2fc *gd83-09-18d1t10.flac
2cfdf9d9aac9bace29d1b36310e0f207 *gd83-09-18d1t11.flac
b97dd1d9c52aeb1ba03911a91fcbe91b *gd83-09-18d1t12.flac
38f029c6760220b00599a33e96a3c793 *gd83-09-18d2t01.flac
b287eeeb79864f834772ff0e613c84dd *gd83-09-18d2t02.flac
ba78e45e9371ab1fd988b9436b0d7255 *gd83-09-18d2t03.flac
5b145bd0302729fd6d476beae424dc36 *gd83-09-18d2t04.flac
61b9db6ef264520fba41418db6c8385f *gd83-09-18d2t05.flac
5371b17e566d255a664908a72c13c0cb *gd83-09-18d2t06.flac
1a075b42ec53a2423335cb6982fed6f1 *gd83-09-18d2t07.flac
239744a62307a37c6dbde396a79d09b3 *gd83-09-18d2t08.flac
1491ff0643726ece2b20082a11adb505 *gd83-09-18d2t09.flac
290bf4657fe148dcdb06e277c59d85fa *gd83-09-18d2t10.flac
4ab8564f0fe8da9bbc3a701b87caba7a *gd83-09-18d2t11.flac
ffp
gd83-09-18d1t01.flac:7f85d4bb39642ccf8ffc2d112cf08fb4
gd83-09-18d1t02.flac:c37d2c226bc00b0ec27a71b0b1411da1
gd83-09-18d1t03.flac:d02d974241174f27e58f3ff5c6ed1935
gd83-09-18d1t04.flac:7cf920e3b834152b085ca981bd5a88af
gd83-09-18d1t05.flac:29313fdc6c7ac9cd47c7c10fa5f606de
gd83-09-18d1t06.flac:c05e604390dd4a79fe1c75954ba6717b
gd83-09-18d1t07.flac:d2b6c421d3c2ea93e26e5c738263d290
gd83-09-18d1t08.flac:ca79c96c2032537646bcc8e3b330ad9b
gd83-09-18d1t09.flac:a7f825c3c7f21c9dbb0fc5e216dfce15
gd83-09-18d1t10.flac:383f77dbed126213cfb586199bc6ad3f
gd83-09-18d1t11.flac:e3b0fcd5751eeacff0ae5787e184c099
gd83-09-18d1t12.flac:c2821fddbb51c3c6c47b0ebd05dd29cc
gd83-09-18d2t01.flac:f1afef87f6be129634d29720d73e827f
gd83-09-18d2t02.flac:41a769506c2cd8949573e9d0fab7e8e1
gd83-09-18d2t03.flac:bb1622d1a5ed7bba5e5e45681daf7795
gd83-09-18d2t04.flac:44c2e154687cb0892ce32d3b18c5d5f8
gd83-09-18d2t05.flac:e460ca39e38eb4138b28edbe5cb29860
gd83-09-18d2t06.flac:ffc440322a8af6be70acc7d01f8d2c8d
gd83-09-18d2t07.flac:a2ab35adc440fdfda1d6e2e7d0535eef
gd83-09-18d2t08.flac:bd3010b5dc930869db29f597eb6a4ce7
gd83-09-18d2t09.flac:9df1e2364da9c707e16d9f823a636c08
gd83-09-18d2t10.flac:fd42136812c4f12e8a5c8ec2101f42f7
gd83-09-18d2t11.flac:04afd515c4425d1b2a83ea4bd5fc3c13

Comments
Add Comment
Other Sources (comments)
set 2; Master FOB Audience... (0) MSC>Cass>DAT>CDR Eac >... (0) flac16; FOB AUD... (0) flac24; billydee... (0) flac16; billydee... (0)
Date User Comment