Browse Collections Artists Sources   Search Dates

Add Show    List Management    Help


Grateful Dead 09/24/83
Santa Cruz County Fairgrounds, Watsonville, CA
Comments Add Comment    Source Collectors    Add to Collection    Add to Want List    History
Source # 98308 Other Sources
Entered by Matt Vernon
Checksums flac-md5 , ffp
Disc Counts 2 / 3
Media Size
Date Circulated
Date Added
04/10/2009
04/08/2009
Source Summary flac16; Nak700's w/d5 dbx fob dfc MAC>NakCR-3A>dbx224>hd>Audacity>CDwave>TLH; Recorded by Tazuo Yamaguchi and Jamie Poris, Transferred by Russ Cansler 
  Archive
Source Information - Download Text | Download Zip
Grateful Dead
September 24th,1983
Santa Cruz County Fairgrounds
Watsonville,California,USA

Nak 700's with Sony TC-D5
FOB DFC
TDK MA 90 nr dbx II

Master>NakCR-3A>dbx224>hd>Audacity>CDWave>TLH
Recorded by Tazuo Yamaguchi and Jamie Poris
Transferred by Russ Cansler

notes:pauses and tape deck chirps in first set

setlist  CD 1
first set
01) tuning [01:21]
02) Alabama Getaway [04:44]
03) Promised Land [04:35]
04) They Love Each Other [08:29]
05) Me and My Uncle [03:02]
06) Mexicali Blues [05:22]
07) Bird Song [09:20] tape flip
08) tuning [01:14]
09) Hell in a Bucket [06:16]
10) Deep Elem Blues [06:03]
11) Looks Like Rain [08:55]
12) Day Job [04:22]
  total 63:49

         CD 2
second set
01) tuning [00:32]
02) China Cat Sunflower [05:58]
03) I Know You Rider [07:52]
04) crowd [01:54]
05) Man Smart(Woman Smarter) [07:27]
06) Ship of Fools [07:18]
07) crowd [01:30]
08) Truckin [10:35]
09) Drums [06:33] tape flip
  total 49:46
          
         CD 3
01) Drums [00:45]
02) Space [10:34]
03) Uncle John's Band [09:39]
04) Throwin' Stones [07:31]
05) Not Fade Away [08:53]
first encore
06) Brokedown Palace [05:29]
07) crowd
second encore
08) Finiculi Finicula [00:43]
09) One More Saturday Night [04:50]
   total 50:34

Jerry Garcia-Guitars,Vocals
Bob Weir-Guitars,Vocals
Phil Lesh-Bass
Billy Kreutzmann-Drums
Micky Hart-Percussion
Brent Mydland-Keyboards,Vocals

shntool 3.0.4
Copyright (C) 2000-2007 Jason Jordan

    length     expanded size    cdr  WAVE problems  fmt   ratio  filename
     1:21.49       14403692 B   ---   --   ---xx   flac  0.4604  gd83-09-24d1t01.flac
     4:44.06       50111756 B   ---   --   ---xx   flac  0.6783  gd83-09-24d1t02.flac
     4:35.14       48542972 B   ---   --   ---xx   flac  0.6675  gd83-09-24d1t03.flac
     8:29.67       89945228 B   ---   --   ---xx   flac  0.6452  gd83-09-24d1t04.flac
     3:02.11       32130716 B   ---   --   ---xx   flac  0.6667  gd83-09-24d1t05.flac
     5:22.03       56807900 B   ---   --   ---xx   flac  0.6831  gd83-09-24d1t06.flac
     9:20.50       98901644 B   ---   --   ---xx   flac  0.6581  gd83-09-24d1t07.flac
     1:14.16       13091276 B   ---   --   ---xx   flac  0.4733  gd83-09-24d1t08.flac
     6:16.49       66441692 B   ---   --   ---xx   flac  0.6633  gd83-09-24d1t09.flac
     6:03.07       64049708 B   ---   --   ---xx   flac  0.6728  gd83-09-24d1t10.flac
     8:55.51       94493996 B   ---   --   ---xx   flac  0.6150  gd83-09-24d1t11.flac
     4:22.00       46216844 B   ---   --   ---xx   flac  0.7041  gd83-09-24d1t12.flac
     0:32.69        5807132 B   ---   --   ---xx   flac  0.4544  gd83-09-24d2t01.flac
     5:58.33       63228860 B   ---   --   ---xx   flac  0.6488  gd83-09-24d2t02.flac
     7:52.22       83312588 B   ---   --   ---xx   flac  0.6827  gd83-09-24d2t03.flac
     1:54.69       20271932 B   ---   --   ---xx   flac  0.4324  gd83-09-24d2t04.flac
     7:27.44       78954332 B   ---   --   ---xx   flac  0.6574  gd83-09-24d2t05.flac
     7:18.38       77352620 B   ---   --   ---xx   flac  0.6196  gd83-09-24d2t06.flac
     1:30.49       15991292 B   ---   --   ---xx   flac  0.4202  gd83-09-24d2t07.flac
    10:35.44      112117532 B   ---   --   ---xx   flac  0.6934  gd83-09-24d2t08.flac
     6:33.56       69456956 B   ---   --   ---xx   flac  0.4908  gd83-09-24d2t09.flac
     0:45.40        8032124 B   ---   --   ---xx   flac  0.5577  gd83-09-24d3t01.flac
    10:34.65      111990524 B   ---   --   ---xx   flac  0.4411  gd83-09-24d3t02.flac
     9:39.43      102236780 B   ---   --   ---xx   flac  0.6694  gd83-09-24d3t03.flac
     7:31.29       79624652 B   ---   --   ---xx   flac  0.6547  gd83-09-24d3t04.flac
     8:53.67       94178828 B   ---   --   ---xx   flac  0.6589  gd83-09-24d3t05.flac
     5:29.70       58200284 B   ---   --   ---xx   flac  0.6006  gd83-09-24d3t06.flac
     2:03.19       21741932 B   ---   --   ---xx   flac  0.4687  gd83-09-24d3t07.flac
     0:43.08        7604060 B   ---   --   ---xx   flac  0.5862  gd83-09-24d3t08.flac
     4:50.48       51268940 B   ---   --   ---xx   flac  0.7058  gd83-09-24d3t09.flac
   164:04.11     1736508792 B                            0.6279  (30 files)
Show Checksums
flac-md5
73093a82eed285597ad6e4b90cdfba68 *gd83-09-24d1t01.flac
654e02239eb8aa3ea6b0d8ee60ae84b2 *gd83-09-24d1t02.flac
72a5a336a235d484baa454a2c5516cbe *gd83-09-24d1t03.flac
fd5f9095903aa8492e3736120f127651 *gd83-09-24d1t04.flac
4ab96a26a39b8d42a8950e59e89d5404 *gd83-09-24d1t05.flac
191fed3cadad26d6cc61597af3f203ad *gd83-09-24d1t06.flac
05d5c9e9834df78bd1f89c5ada19d9a0 *gd83-09-24d1t07.flac
67bc77c08f5d089bf14a89924086ea51 *gd83-09-24d1t08.flac
db76265c01c8a253a62292dcc1ad56d4 *gd83-09-24d1t09.flac
05d18c5f3408675ac323edb9067b3e86 *gd83-09-24d1t10.flac
f0f5e6ad353f95258b52d84b387a1a01 *gd83-09-24d1t11.flac
4f25a7f22258613908d86b58c44ffb28 *gd83-09-24d1t12.flac
659f84a9648c91afde4e10c1e3d71a20 *gd83-09-24d2t01.flac
5b0beecbd1a2e8b38620dc3476f97af7 *gd83-09-24d2t02.flac
1895ce70bdc9bc23020f1d391a14e458 *gd83-09-24d2t03.flac
70cada8573c9b105981e571f9cf82d5e *gd83-09-24d2t04.flac
a02972fc246476a0a23abc0e1e322e66 *gd83-09-24d2t05.flac
61a92b5ee7b5b9f7c37328e1c79de0ca *gd83-09-24d2t06.flac
65023126a8897f740ad3a0934de4c9ff *gd83-09-24d2t07.flac
2bc2d54f790a8af9de84102dbfdffb78 *gd83-09-24d2t08.flac
6b54e95a1372c66e31da2563532ec958 *gd83-09-24d2t09.flac
1df514a0c1a667427fbc959654fcefb7 *gd83-09-24d3t01.flac
1bbb0abfc2c9131310baa4ee8a7f0017 *gd83-09-24d3t02.flac
032f266c145759dba797cacd7a0626a1 *gd83-09-24d3t03.flac
a46daa5414c81461b834aa52e597d34e *gd83-09-24d3t04.flac
8c14fe8be9ca3d18f439567679a8c9e8 *gd83-09-24d3t05.flac
408a99564f4e4d2a36cf3857ec3c3701 *gd83-09-24d3t06.flac
436d3443e48afcb11e7793169caffb2a *gd83-09-24d3t07.flac
91234eedaad718e00a20ea70d8031511 *gd83-09-24d3t08.flac
fb07f82710d48ee261007ffa68528866 *gd83-09-24d3t09.flac
ffp
gd83-09-24d1t01.flac:d26aa5d7727868e386710a80e5886f6d
gd83-09-24d1t02.flac:684db176e55ea6431819166a10bed67f
gd83-09-24d1t03.flac:5fa3e79b75577bc9b66214cf1da3c5d5
gd83-09-24d1t04.flac:24f5fd4deb98864d8639b8872d26c973
gd83-09-24d1t05.flac:161baec29ad153862f0b747eff656417
gd83-09-24d1t06.flac:ee62416369ed14e73ce93f23b720aad5
gd83-09-24d1t07.flac:8885858b532d2d53cd9b93254dee5f78
gd83-09-24d1t08.flac:bf901c8bcc907f8ca10ca17dad299c14
gd83-09-24d1t09.flac:43614b2caa1f06e02cd37c25e50e4fd2
gd83-09-24d1t10.flac:218dbc64a86e8dd23f7976a9ee0b92dc
gd83-09-24d1t11.flac:08883601b4a7676d7f0737ed214e5e87
gd83-09-24d1t12.flac:f146c3a27eaf8356b15c991b795f1f0b
gd83-09-24d2t01.flac:f65a5efb377ea57434ec72ab3fe1a65f
gd83-09-24d2t02.flac:72e03882a9e33320a6c44d6bf67b5fd1
gd83-09-24d2t03.flac:5bacf6e9bf02acc28fab9983cc766175
gd83-09-24d2t04.flac:b28f7de46c1d907c95afaf6a64157d14
gd83-09-24d2t05.flac:e83e57dffd8e8a0fed2d4108e8799ea4
gd83-09-24d2t06.flac:3af0e444515f29d8a032fd0d9c756588
gd83-09-24d2t07.flac:e6fc1326e8f5c5f87fd85e00e87ba765
gd83-09-24d2t08.flac:fa8ebd3115dd1bc407a7a50475217c7f
gd83-09-24d2t09.flac:216ba37476e41ea04ccc1d54a831643d
gd83-09-24d3t01.flac:6645bd119ef1a8d85cfe1cce7f3b4c94
gd83-09-24d3t02.flac:45f03d2ee01882857bdd583e9d00463d
gd83-09-24d3t03.flac:b3aa79770b6410cc170a9732aad6c323
gd83-09-24d3t04.flac:6ae50ddd7429753177961f9bd2490c39
gd83-09-24d3t05.flac:0e4f0cff92f9b1027888abbba9d491e9
gd83-09-24d3t06.flac:8659d2601e05aeb66091d1dfece9bced
gd83-09-24d3t07.flac:ed27751406118a2bec9d0942acbf64e5
gd83-09-24d3t08.flac:3dc6282e90b6c6509287e7e2d0688af6
gd83-09-24d3t09.flac:fcc9e08c3342778569e4d5fe6249e359

Comments
Add Comment
Other Sources (comments)
FOB-AUD(Neuman KM-84?s>Sony... (0) 1st set only;... (0) flac24; Set 1... (0) flac16; Set 1... (0)
Date User Comment