Browse Collections Artists Sources   Search Dates

Add Show    List Management    Help


Disco Biscuits 06/06/08
Webster Theater, Hartford, CT
Comments Add Comment    Source Collectors    Add to Collection    Add to Want List    History
Source # 98376 Other Sources
Entered by SailorSaint
Checksums ffp
Disc Counts 2 / 3
Media Size
Date Circulated
Date Added

04/10/2009
Source Summary Schoeps mk4 > kc5 > cmc6 > Lunatec V3 > MT @ 24/48 Lineage: Compact Flash > Sound Studio 3.0 (fades, EQ, normalize, resample, dither) > xAct (sector boundary alignment, FLAC encoding (level 8), tags, fingerprints) 
  Archive
Source Information - Download Text | Download Zip
The Disco Biscuits
June 6, 2008
Webster Theater
Hartford, CT

Source: {16 bit} Schoeps MK4 > KC5 > CMC6 > Lunatec V3 > MT @ 2448
Lineage: Compact Flash > Sound Studio 3.0 (fades, EQ, normalize, resample, dither) >
xAct (sector boundary alignment, FLAC encoding (level 8), tags, fingerprints)
Location: DFC/FOH DIN @ 8'
Taped by: Jesse Hurlburt

Disc One:
   Set I:
01. Crowd
02. Strobelights and Martinis >
03. Mindless Dribble >
04. Helicopters (1)
05. Spectacle
06. Shelby Rose >
07. Aceetobee >
08. Shelby Rose

Disc Two:
  Set II:
01. Crowd
02. Rockafella >
03. The Overture (2) >
04. Save The Robots >
05. Triumph >
06. Save The Robots

Disc Three:
01. The Tunnel >
02. Goodbye Stranger (3) >
03. The Tunnel
04. encore break
05. Highwire

1 ending only
2 inverted
3 1st time played (Supertramp)

    length     expanded size    cdr  WAVE problems  fmt   ratio  filename
     1:30.04       15885452 B   ---   --   ---xx  db2008-06-06.mk4.d1t01.flac
     5:27.47       57793388 B   ---   --   ---xx  db2008-06-06.mk4.d1t02.flac
    18:26.71      195265436 B   ---   --   ---xx  db2008-06-06.mk4.d1t03.flac
    10:17.39      108930572 B   ---   --   ---xx  db2008-06-06.mk4.d1t04.flac
    13:42.44      145104332 B   ---   --   ---xx  db2008-06-06.mk4.d1t05.flac
    17:26.09      184535612 B   ---   --   ---xx  db2008-06-06.mk4.d1t06.flac
     7:04.03       74800700 B   ---   --   ---xx  db2008-06-06.mk4.d1t07.flac
     6:00.69       63666332 B   ---   --   ---xx  db2008-06-06.mk4.d1t08.flac
     1:30.55       16005404 B   ---   --   ---xx  db2008-06-06.mk4.d2t01.flac
     9:37.14      101815772 B   ---   --   ---xx  db2008-06-06.mk4.d2t02.flac
    11:32.63      122217020 B   ---   --   ---xx  db2008-06-06.mk4.d2t03.flac
    12:13.27      129364748 B   ---   --   ---xx  db2008-06-06.mk4.d2t04.flac
     6:37.72       70200188 B   ---   --   ---xx  db2008-06-06.mk4.d2t05.flac
    15:50.13      167610620 B   ---   --   ---xx  db2008-06-06.mk4.d2t06.flac
     9:18.63       98579420 B   ---   --   ---xx  db2008-06-06.mk4.d3t01.flac
     5:31.50       58506044 B   ---   --   ---xx  db2008-06-06.mk4.d3t02.flac
     4:28.50       47392844 B   ---   --   ---xx  db2008-06-06.mk4.d3t03.flac
     2:56.33       31124060 B   ---   --   ---xx  db2008-06-06.mk4.d3t04.flac
     4:46.06       50464556 B   ---   --   ---xx  db2008-06-06.mk4.d3t05.flac
   164:19.57     1739262500 B                            0.6039  (19 files)
Show Checksums
ffp
db2008-06-06.mk4.d1t01.flac:8d2bd369ffeefcbc31bf986ddb617082
db2008-06-06.mk4.d1t02.flac:5e844b57a6c7f94ecc01a6a1c80e53e5
db2008-06-06.mk4.d1t03.flac:fb992b974c811e9c5635ba4e62b96841
db2008-06-06.mk4.d1t04.flac:0732f67d3261b26bcc7d5399ee5493e2
db2008-06-06.mk4.d1t05.flac:024d03fea0465587b9497fee2c84410d
db2008-06-06.mk4.d1t06.flac:75ac17d9af7a97ef42bdbc53d638c313
db2008-06-06.mk4.d1t07.flac:1b79ca771f3b4083ab296709813406c8
db2008-06-06.mk4.d1t08.flac:a43743eecc6c7d21fa060520df4a8425
db2008-06-06.mk4.d2t01.flac:8ec3637e0f29524d1d8894f897bd38db
db2008-06-06.mk4.d2t02.flac:12f838c9d97e3d28fc5f5aea7ec36f32
db2008-06-06.mk4.d2t03.flac:f0f17ec76dd5b2f4b5ed6528456a7df6
db2008-06-06.mk4.d2t04.flac:97875f706d2995a7eba43983a4b8f2ca
db2008-06-06.mk4.d2t05.flac:04204c97632a8c3fb4e365b87f03d9ad
db2008-06-06.mk4.d2t06.flac:a9f06a02e4974d80069612f5b2b42bff
db2008-06-06.mk4.d3t01.flac:e2df38d3cd7660d6d89a38003a9e8dfb
db2008-06-06.mk4.d3t02.flac:531709b0deadc7f005b78e905a418a8b
db2008-06-06.mk4.d3t03.flac:59c66c16a1177a3a579fceb8a12ca749
db2008-06-06.mk4.d3t04.flac:b9da6ea3a2e0816125ec433b5a412708
db2008-06-06.mk4.d3t05.flac:6316d440b98a54e8c39b5710e8e7f460

Comments
Add Comment
Other Sources (comments)
(At835b > Edirol R4 @ 24/48... (0) Schoeps mk41... (0)
Date User Comment