Browse Collections Artists Sources   Search Dates

Add Show    List Management    Help


Garcia 02/09/81
Ocean State Theater, Providence, RI
Comments Add Comment    Source Collectors    Add to Collection    Add to Want List    History
Source # 98865 Other Sources
Entered by Joe Jupille
Checksums ffp
Disc Counts 0 / 0
Media Size
Date Circulated
Date Added
05/06/2009
05/06/2009
Source Summary JGB, flac24: 2x Nakamichi CM-300's (CP-1 cardioids) plus 1x AKG D200E blend mic > Nakamichi 550 > Maxell UDXL-II 90's, from 18th row, right center section. Taped by Tim Friend. Transfer: MAC > Nakamichi DR-8 > Edirol FA-66 > Wavelab > CD-Wave > TLH > FLAC 2496. Transfer by Andrew F. 
Source Information - Download Text | Download Zip
JERRY GARCIA BAND
Ocean State Theater
Providence RI
02-09-1981

24bit/96kHz file-set

s1t01 crowd & tuning
s1t02 Sugaree
s1t03 Love in the Afternoon
s1t04 That's What Love Will Make You Do
s1t05 Simple Twist of Fate
s1t06 Sitting in Limbo
s1t07 Tangled Up in Blue

s2t01 crowd & tuning
s2t02 I'll Take a Melody
s2t03 How Sweet It Is
s2t04 The Harder They Come
s2t05 Mission in the Rain
s2t06 Dear Prudence
s2t07 Deal
s2t08 Midnight Moonlight

AUD: 2x Nakamichi CM-300's (CP-1 cardioids) plus 1x AKG
D200E blend mic > Nakamichi 550 > Maxell UDXL-II 90's,
from 18th row, right center section. Taped by Tim Friend.

Transfer: MAC > Nakamichi DR-8 > Edirol FA-66 > Wavelab >
CD-Wave > TLH > FLAC 2496. Transfer by Andrew F. 05/2009

    length     expanded size    cdr  WAVE problems  fmt   ratio  filename
     1:39.013      57031724 B   cxx   --   ---xx   flac  0.5606  jgb1981-02-09s1t01.flac
    13:05.093     452213804 B   cxx   --   ---xx   flac  0.5944  jgb1981-02-09s1t02.flac
    10:16.920     355345964 B   cxx   --   ---xx   flac  0.5834  jgb1981-02-09s1t03.flac
    10:36.700     366739148 B   cxx   --   ---xx   flac  0.5989  jgb1981-02-09s1t04.flac
    18:02.467     623500844 B   cxx   --   ---xx   flac  0.5629  jgb1981-02-09s1t05.flac
    12:00.107     414781484 B   cxx   --   ---xx   flac  0.5860  jgb1981-02-09s1t06.flac
    11:34.125     399816248 B   cxx   --   ---xx   flac  0.6036  jgb1981-02-09s1t07.flac
     1:00.307      34736684 B   cxx   --   ---xx   flac  0.5275  jgb1981-02-09s2t01.flac
    13:00.200     449395244 B   cxx   --   ---xx   flac  0.5812  jgb1981-02-09s2t02.flac
     9:08.640     316016684 B   cxx   --   ---xx   flac  0.5882  jgb1981-02-09s2t03.flac
    11:05.082     383087450 B   cxx   --   ---xx   flac  0.5908  jgb1981-02-09s2t04.flac
    11:05.560     383362604 B   cxx   --   ---xx   flac  0.5861  jgb1981-02-09s2t05.flac
    12:11.973     421616684 B   cxx   --   ---xx   flac  0.5806  jgb1981-02-09s2t06.flac
     6:41.400     231206444 B   cxx   --   ---xx   flac  0.5926  jgb1981-02-09s2t07.flac
     6:52.989     237881510 B   cxx   --   ---xx   flac  0.5892  jgb1981-02-09s2t08.flac
   148:20.576    5126732520 B                            0.5855  (15 files)

No errors occured.
Show Checksums
ffp
jgb1981-02-09s1t01.flac:a48f50b9f49339f76d3f63f598ada7a0
jgb1981-02-09s1t02.flac:5e21f1e189fbc8d17ebec47cfdd492ff
jgb1981-02-09s1t03.flac:86e513c9b49c91e6231f5a2fd1a9bdda
jgb1981-02-09s1t04.flac:e716c8c9642d7b3a17173b54d859cd89
jgb1981-02-09s1t05.flac:55b645cb9b25395fe35d9410b7e76109
jgb1981-02-09s1t06.flac:e55ef0df4cbc9367173c1c2d0bc62e5f
jgb1981-02-09s1t07.flac:35e58bb4c257e42555cff4654841f2ef
jgb1981-02-09s2t01.flac:dea3e81fc8d8849e9e1f60b70960d8da
jgb1981-02-09s2t02.flac:6585ac040b09ca306c92e374159bfbb3
jgb1981-02-09s2t03.flac:7596ad5c8249eb4db9f0567395aea4aa
jgb1981-02-09s2t04.flac:72246ca7b72f19044d4d24a56b323a3b
jgb1981-02-09s2t05.flac:1cce7898f2f9f341bd00a46b973710c8
jgb1981-02-09s2t06.flac:f98c874f901ef45186c6448972cc651d
jgb1981-02-09s2t07.flac:f04e55c257453717fc4535096cd38521
jgb1981-02-09s2t08.flac:436adfd5b5a74a6a7f0de52f4af1b27f

Comments
Add Comment
Other Sources (comments)
Jerry Garcia Band: MAC... (1) JGB: Jim Vita's FOB... (0) JGB flac16: 2x... (0) JGB; flac1644; Frank... (0)
Date User Comment