Browse Collections Artists Sources   Search Dates

Add Show    List Management    Help


Garcia 02/09/81
Ocean State Theater, Providence, RI
Comments Add Comment    Source Collectors    Add to Collection    Add to Want List    History
Source # 98866 Other Sources
Entered by Joe Jupille
Checksums ffp
Disc Counts 2 / 2
Media Size
Date Circulated
Date Added
05/06/2009
05/06/2009
Source Summary JGB flac16: 2x Nakamichi CM-300's (CP-1 cardioids) plus 1x AKG D200E blend mic > Nakamichi 550 > Maxell UDXL-II 90's, from 18th row, right center section. Taped by Tim Friend. Transfer: MAC > Nakamichi DR-8 > Edirol FA-66 > Wavelab > CD-Wave > R8Brain > TLH > FLAC 1644. Transfer by Andrew F.  
Source Information - Download Text | Download Zip
JERRY GARCIA BAND
Ocean State Theater
Providence RI
02-09-1981

Disc One - Set One (77:14)

01 crowd & tuning
02 Sugaree
03 Love in the Afternoon
04 That's What Love Will Make You Do
05 Simple Twist of Fate
06 Sitting in Limbo
07 Tangled Up in Blue

Disc Two - Set Two (71:06)

01 crowd & tuning
02 I'll Take a Melody
03 How Sweet It Is
04 The Harder They Come
05 Mission in the Rain
06 Dear Prudence
07 Deal
08 Midnight Moonlight

AUD: 2x Nakamichi CM-300's (CP-1 cardioids) plus 1x AKG
D200E blend mic > Nakamichi 550 > Maxell UDXL-II 90's,
from 18th row, right center section. Taped by Tim Friend.

Transfer: MAC > Nakamichi DR-8 > Edirol FA-66 > Wavelab >
CD-Wave > R8Brain > TLH > FLAC 1644. Transfer by Andrew F.
05/2009

    length     expanded size    cdr  WAVE problems  fmt   ratio  filename
     1:39.01       17465996 B   ---   --   ---xx   flac  0.5009  jgb1981-02-09d1t01.flac
    13:05.07      138490508 B   ---   --   ---xx   flac  0.5483  jgb1981-02-09d1t02.flac
    10:16.69      108824732 B   ---   --   ---xx   flac  0.5297  jgb1981-02-09d1t03.flac
    10:36.52      112312748 B   ---   --   ---xx   flac  0.5607  jgb1981-02-09d1t04.flac
    18:02.35      190947164 B   ---   --   ---xx   flac  0.4939  jgb1981-02-09d1t05.flac
    12:00.08      127026860 B   ---   --   ---xx   flac  0.5322  jgb1981-02-09d1t06.flac
    11:34.10      122445164 B   ---   --   ---xx   flac  0.5705  jgb1981-02-09d1t07.flac
     1:00.23       10638140 B   ---   --   ---xx   flac  0.4562  jgb1981-02-09d2t01.flac
    13:00.15      137627324 B   ---   --   ---xx   flac  0.5255  jgb1981-02-09d2t02.flac
     9:08.48       96780140 B   ---   --   ---xx   flac  0.5389  jgb1981-02-09d2t03.flac
    11:05.06      117320156 B   ---   --   ---xx   flac  0.5475  jgb1981-02-09d2t04.flac
    11:05.42      117404828 B   ---   --   ---xx   flac  0.5303  jgb1981-02-09d2t05.flac
    12:11.73      129120140 B   ---   --   ---xx   flac  0.5229  jgb1981-02-09d2t06.flac
     6:41.30       70807004 B   ---   --   ---xx   flac  0.5480  jgb1981-02-09d2t07.flac
     6:53.00       72853244 B   ---   --   ---xx   flac  0.5465  jgb1981-02-09d2t08.flac
   148:20.44     1570064148 B                            0.5344  (15 files)

No errors occured.
Show Checksums
ffp
jgb1981-02-09d1t01.flac:bafd63b1291cc91def5b74853095cd9c
jgb1981-02-09d1t02.flac:dea721f303d157e0a59310bff963d9ad
jgb1981-02-09d1t03.flac:df78219405315315380e75035081ed22
jgb1981-02-09d1t04.flac:d43c7abc5cef61a4794f333a6af4727a
jgb1981-02-09d1t05.flac:e0bd76334fe6a0212a529e340efb6320
jgb1981-02-09d1t06.flac:64532bea49833af667e25247d3be0031
jgb1981-02-09d1t07.flac:2e0b14309cfe73793fde249fd2a71d11
jgb1981-02-09d2t01.flac:75d82eddb4ca6ef4398b5bd355d95523
jgb1981-02-09d2t02.flac:647c08d9f8d546308210893c45ff02fb
jgb1981-02-09d2t03.flac:ca3c8a04c368dc9608bd31791fe63c40
jgb1981-02-09d2t04.flac:a48c66d5bf07882ed6590dd04e78c01b
jgb1981-02-09d2t05.flac:04307cd533ddf74d56c6414741c0e826
jgb1981-02-09d2t06.flac:853b5edb85bef1dd075e7fdeab945251
jgb1981-02-09d2t07.flac:5d5a7525b4c9e687d11196603d305d32
jgb1981-02-09d2t08.flac:90d28e0e35a9612ba849615ecc0ca836

Comments
Add Comment
Other Sources (comments)
Jerry Garcia Band: MAC... (1) JGB: Jim Vita's FOB... (0) JGB, flac24: 2x... (0) JGB; flac1644; Frank... (0)
Date User Comment