Browse Collections Artists Sources   Search Dates

Add Show    List Management    Help


Grateful Dead 10/27/79
Cape Cod Coliseum, South Yarmouth, MA
Comments Add Comment    Source Collectors    Add to Collection    Add to Want List    History
Source # 98950 Other Sources
Entered by Matt Vernon
Checksums ffp , flac-md5
Disc Counts 2 / 3
Media Size
Date Circulated
Date Added
05/11/2009
05/11/2009
Source Summary flac16; Recording Info: SBD -> Cassette Master (Sony TCD5M/UDXL-II) -> Dat (Panasonic SV3800/48k) Transfer Info: Dat (Sony D8) -> M-Audio DIO2448 -> Samplitude Professional v8.0 -> FLAC -> Adobe Audition v1.5 -> Samplitude Professional v10.2.1 -> FLAC; All Transfers and Mastering By Charlie Miller (This is a fix of shnid=29411, 29490 and 98561.) 
  Archive
Source Information - Download Text | Download Zip
Grateful Dead - October 27, 1979
Cape Cod Coliseum - South Yarmouth, MA

Recording Info:
SBD -> Cassette Master (Sony TCD5M/UDXL-II) -> Dat (Panasonic SV3800/48k)

Transfer Info:
Dat (Sony D8) -> M-Audio DIO2448 -> Samplitude Professional v8.0 ->
FLAC -> Adobe Audition v1.5 -> Samplitude Professional v10.2.1 -> FLAC
(3 Discs Audio / 2 Discs FLAC)

All Transfers and Mastering By Charlie Miller
[email protected]
May 10, 2009

Patch Info:
Nakamichi 700 -> Cassette Master -> Dat -> CD (shnid=19416) supplies:
Minglewood Blues (3:41 - 4:31)
Stagger Lee (5:39 - 5:50)
Dancin'In The Street (11:33 - 12:02)
The Other One (8:34 - 9:16)

Notes:
-- Set 2 is seamless
-- This is a fix of shnid=29411, 29490 and 98561  
-- Thanks to Joe B. Jones for his help with the pitch correction

Set 1:
d1t01 - Jack Straw
d1t02 - Candyman
d1t03 - Me And My Uncle ->
d1t04 - Big River
d1t05 - Brown Eyed Women
d1t06 - Easy To Love You
d1t07 - New Minglewood Blues
d1t08 - Stagger Lee
d1t09 - Lost Sailor ->
d1t10 - Saint Of Circumstance ->
d1t11 - Deal

Set 2:
d2t01 - Tuning
d2t02 - Dancin' In The Street ->
d2t03 - Franklin's Tower
d2t04 - He's Gone ->
d2t05 - Caution Jam ->
d2t06 - The Other One ->
d2t07 - Drums ->
d3t01 - Not Fade Away ->
d3t02 - Black Peter ->
d3t03 - Around And Around

Encore:
d3t04 - One More Saturday Night


SHNTOOL OUTPUT:
    length     expanded size   cdr  WAVE problems filename
     8:56.30       94621004    ---   --   -----   gd79-10-27d1t01.wav
     8:54.69       94359932    ---   --   -----   gd79-10-27d1t02.wav
     3:04.38       32547020    ---   --   -----   gd79-10-27d1t03.wav
     9:21.28       99026300    ---   --   -----   gd79-10-27d1t04.wav
     7:14.50       76675244    ---   --   -----   gd79-10-27d1t05.wav
     5:20.61       56591516    ---   --   -----   gd79-10-27d1t06.wav
     8:45.61       92753516    ---   --   -----   gd79-10-27d1t07.wav
    10:02.29      106261052    ---   --   -----   gd79-10-27d1t08.wav
     6:34.70       69666284    ---   --   -----   gd79-10-27d1t09.wav
     5:25.49       57445292    ---   --   -----   gd79-10-27d1t10.wav
     5:25.68       57489980    ---   --   -----   gd79-10-27d1t11.wav
     3:14.49       34336892    ---   --   -----   gd79-10-27d2t01.wav
    13:47.05      145894604    ---   --   -----   gd79-10-27d2t02.wav
    20:41.36      218997116    ---   --   -----   gd79-10-27d2t03.wav
    13:38.09      144316412    ---   --   -----   gd79-10-27d2t04.wav
     3:17.49       34866092    ---   --   -----   gd79-10-27d2t05.wav
    10:42.45      113354684    ---   --   -----   gd79-10-27d2t06.wav
     4:29.36       47536316    ---   --   -----   gd79-10-27d2t07.wav
     9:06.41       96410876    ---   --   -----   gd79-10-27d3t01.wav
     9:22.45       99242684    ---   --   -----   gd79-10-27d3t02.wav
     9:06.23       96368540    ---   --   -----   gd79-10-27d3t03.wav
     5:06.22       54030188    ---   --   -----   gd79-10-27d3t04.wav
   181:40.13     1922791544 B                     (totals for 22 files)
Show Checksums
ffp
gd79-10-27d1t01.flac:f8674dd53834c21bdea89c017cd97d09
gd79-10-27d1t02.flac:d335cc2ea215133eb313d66d21380333
gd79-10-27d1t03.flac:2f76930b264e2eaeb8e89da5716f9dd7
gd79-10-27d1t04.flac:30b75293dcced4e6ccdbeb53829dcf52
gd79-10-27d1t05.flac:3fb2715301f17ffe23f1c666d437a3ef
gd79-10-27d1t06.flac:774084909e82cfe6eafcfb951fea0696
gd79-10-27d1t07.flac:9860bd4e54f4b7bd2bc6619df2b896a8
gd79-10-27d1t08.flac:89242e1c13a42fd86e282f1a584ab75f
gd79-10-27d1t09.flac:8bfae2d01c5d875d371a6e9019b72b72
gd79-10-27d1t10.flac:3c724610773fd282c1fb3b2d8751c103
gd79-10-27d1t11.flac:d077de7c5a228e49abb8b6f40d25772b
gd79-10-27d2t01.flac:6a440b323525edddd6a0cd41ee9feb50
gd79-10-27d2t02.flac:7bcd4d391b70433d428c3cb7403b9050
gd79-10-27d2t03.flac:b237bc51900c869f3c9617d76e37d3d6
gd79-10-27d2t04.flac:f1325c0f9a2b218596d27de9baa08325
gd79-10-27d2t05.flac:b0b91fab52ce3154fbf567bdf2ccc624
gd79-10-27d2t06.flac:5e1f6d7cd58b643c242785000aaa2ea9
gd79-10-27d2t07.flac:955bb589406ac22c5a82e30658f68bcd
gd79-10-27d3t01.flac:ca8c85beb97742fdd368090a89cd7867
gd79-10-27d3t02.flac:594c194b92e94b6f5eb56eab190f7171
gd79-10-27d3t03.flac:7caea027e3616dce2d232184bafd9415
gd79-10-27d3t04.flac:e5f984c075165d677fa4a5f9dc25bfd4
flac-md5
01e8daa8ba8eed54623e69871f3c34b2 *gd79-10-27d1t01.flac
2f71947ad77fe46bfa855db79512172c *gd79-10-27d1t02.flac
424cea78f8fd652cbaf65ef4650106bd *gd79-10-27d1t03.flac
18768b0b7d8c5abe051568d68ef6224e *gd79-10-27d1t04.flac
a712617729723f16fd875b1a5d85489a *gd79-10-27d1t05.flac
804a8707ce5719a306a6dec68810c86a *gd79-10-27d1t06.flac
2f78f36c7d380791bc7cca3f2172ff05 *gd79-10-27d1t07.flac
4119d63fbd20b1c932c75fb4739d9f8f *gd79-10-27d1t08.flac
8996939fe6ecac4156a355d0642330b1 *gd79-10-27d1t09.flac
ce76ff5ca52352c9c1f87295a5aecc55 *gd79-10-27d1t10.flac
296a1dab215707f2bbcca38729436285 *gd79-10-27d1t11.flac
2097584dd314385787225a2c2b437699 *gd79-10-27d2t01.flac
89d8335da16737359b760e4630b1d3c0 *gd79-10-27d2t02.flac
139d9b6e63133a4e088c203f15e32648 *gd79-10-27d2t03.flac
ac01e8eb3d31b8149442db64ed4b25d5 *gd79-10-27d2t04.flac
f0405583a09461d437f90f0a192e9619 *gd79-10-27d2t05.flac
63e4277d2fce05e565eb4ecf9f340430 *gd79-10-27d2t06.flac
afb56585e8dce801f5b631eeaa4ea10d *gd79-10-27d2t07.flac
760c4f26b354a61c7c394a0e9ee1166d *gd79-10-27d3t01.flac
d52ce1a42b930e3848fafb790b674275 *gd79-10-27d3t02.flac
9debb8968088c8b1958c3fe75eb78ae6 *gd79-10-27d3t03.flac
ccc170de283f446fda22763531aa03f3 *gd79-10-27d3t04.flac

Comments
Add Comment
Other Sources (comments)
SBD> [?]> DAT (D. DiProsa)>... (10) Master Soundboard Cassette... (9) Recording by Steve Rolfe:... (0) Set 2 Only: zero gen source... (0) Repatch of (1) flac16; Recording... (0) flac16; Recording... (0) flac16; SBD and... (0) flac16; Recording... (0) flac16; Matrix by... (0) flac16; AUD: 3x... (0) flac16; Sennheiser... (0) flac24; Recorded... (0)
Date User Comment