Browse Collections Artists Sources   Search Dates

Add Show    List Management    Help


Grateful Dead 05/11/79
Billerica Forum, Billerica, MA
Comments Add Comment    Source Collectors    Add to Collection    Add to Want List    History
Source # 99029 Other Sources
Entered by Matt Vernon
Checksums ffp , flac-md5
Disc Counts 2 / 3
Media Size
Date Circulated
Date Added
05/17/2009
05/16/2009
Source Summary flac16; Recording Info: (FOB) Nakamichi 700 -> Cassette Master (Sony TC-158/Maxell UDXL-II90) Transfer Info: Cassette Master (Nakamichi DR-1) -> Sound Devices 744T (24bit/96k) -> Samplitude Professional v10.2.1 -> Adobe Audition v1.5 -> FLAC/16; Recorded by Steve Rolfe; All Transfers and Mastering By Charlie Miller 
  Archive
Source Information - Download Text | Download Zip
Grateful Dead - May 11, 1979
Billerica Forum - Billerica, MA

Recording Info:
(FOB) Nakamichi 700 -> Cassette Master (Sony TC-158/Maxell UDXL-II90)

Transfer Info:
Cassette Master (Nakamichi DR-1) -> Sound Devices 744T (24bit/96k) ->
Samplitude Professional v10.2.1 -> Adobe Audition v1.5 -> FLAC/16
(3 Discs Audio / 2 Discs FLAC)

All Transfers and Mastering By Charlie Miller
[email protected]
May 14, 2009

Patch Info:
Keith Gatto's Cassette Master (shnid=19268) supplies:
Drums (7:22 - 7:34)

Notes:
-- Set 2 is seamless
-- Thanks to Steve Rolfe for lending me his masters
-- Thanks to Joe B. Jones for his help with the pitch correction

Set 1:
d1t01 - Tuning
d1t02 - Mississippi Half-Step Uptown Toodeloo ->
d1t03 - Franklin's Tower
d1t04 - Mama Tried ->
d1t05 - Mexicali Blues
d1t06 - Peggy-O
d1t07 - It's All Over Now
d1t08 - Brown Eyed Women
d1t09 - Lazy Lightnin' ->
d1t10 - Supplication

Set 2:
d2t01 - Tuning
d2t02 - Shakedown Street
d2t03 - Passenger
d2t04 - Ship Of Fools
d2t05 - Estimated Prophet ->
d2t06 - Eyes Of The World ->
d2t07 - Drums ->
d3t01 - Space ->
d3t02 - Black Peter ->
d3t03 - I Need A Miracle ->
d3t04 - Bertha ->
d3t05 - Good Lovin'


SHNTOOL OUTPUT:
    length     expanded size   cdr  WAVE problems filename
     0:49.56        8775356    ---   --   -----   gd79-05-11d1t01.wav
    10:18.61      109158716    ---   --   -----   gd79-05-11d1t02.wav
    14:38.19      154923932    ---   --   -----   gd79-05-11d1t03.wav
     2:52.56       30472556    ---   --   -----   gd79-05-11d1t04.wav
     6:19.70       67020284    ---   --   -----   gd79-05-11d1t05.wav
     8:58.24       94959692    ---   --   -----   gd79-05-11d1t06.wav
    11:19.59      119914412    ---   --   -----   gd79-05-11d1t07.wav
     7:09.74       75849692    ---   --   -----   gd79-05-11d1t08.wav
     3:33.29       37641452    ---   --   -----   gd79-05-11d1t09.wav
     7:22.28       78034700    ---   --   -----   gd79-05-11d1t10.wav
     1:54.15       20144924    ---   --   -----   gd79-05-11d2t01.wav
    14:25.71      152753036    ---   --   -----   gd79-05-11d2t02.wav
     8:00.57       84806108    ---   --   -----   gd79-05-11d2t03.wav
    10:07.35      107157164    ---   --   -----   gd79-05-11d2t04.wav
    12:14.70      129642284    ---   --   -----   gd79-05-11d2t05.wav
    14:24.55      152539004    ---   --   -----   gd79-05-11d2t06.wav
    13:32.56      143368556    ---   --   -----   gd79-05-11d2t07.wav
     7:07.32       75398108    ---   --   -----   gd79-05-11d3t01.wav
    11:43.23      124063340    ---   --   -----   gd79-05-11d3t02.wav
     4:46.29       50518652    ---   --   -----   gd79-05-11d3t03.wav
     6:51.07       72516908    ---   --   -----   gd79-05-11d3t04.wav
     7:43.12       81701468    ---   --   -----   gd79-05-11d3t05.wav
   186:15.38     1971360344 B                     (totals for 22 files)
Show Checksums
ffp
gd79-05-11d1t01.flac:c523cd836d01506cd9cd9643c2e467e7
gd79-05-11d1t02.flac:6e69abf120057ab2e11c8fa8ae8b3864
gd79-05-11d1t03.flac:7dea332fabd3f44bc72eb22741abf39e
gd79-05-11d1t04.flac:b9174d067d460db44f1f658a7a845593
gd79-05-11d1t05.flac:2ae9dc45039c2c7a86b8ad4abc6ca0f8
gd79-05-11d1t06.flac:6dc683bcfd9a81cbef1266a94f06c831
gd79-05-11d1t07.flac:17eca326318eee7c6c1f444a190ee0ae
gd79-05-11d1t08.flac:c0bb74322aa45e750ef54a4b08ee72ba
gd79-05-11d1t09.flac:f9ba9b1ea166d6e50333770ac4f74cd8
gd79-05-11d1t10.flac:7250592d9fd4a628480d9e844168ca39
gd79-05-11d2t01.flac:1e58e622c0d1f8ac3e9c2aaf0c2eafb2
gd79-05-11d2t02.flac:fad698c96c108381ff245e0e4fca8851
gd79-05-11d2t03.flac:5ca21133d89c2bc39d2866625abcccf9
gd79-05-11d2t04.flac:202e49cc1cf4b3449775bed2a663fb4c
gd79-05-11d2t05.flac:36ac80ee11b0b36d3afcfc7d1e7cc57a
gd79-05-11d2t06.flac:7b87058d3318a0d962fa86bb573219be
gd79-05-11d2t07.flac:8ec530fbd91c41740a84458b3984366f
gd79-05-11d3t01.flac:30f074e6d421caad671e543d1e65c45b
gd79-05-11d3t02.flac:ce43839844aacb4bbeac428404ec7208
gd79-05-11d3t03.flac:7079a1a26c39aa06e343d63c368fe7c2
gd79-05-11d3t04.flac:5c1490cce6ee51ea684d01242fc96204
gd79-05-11d3t05.flac:6eb144b8de9ebed1ec3ab46dad94e78f
flac-md5
e8dd8cc33bd5920d7f5deb2c1dcb2ccc *gd79-05-11d1t01.flac
1f9a979463d60ae7ebbbb244b523ca2f *gd79-05-11d1t02.flac
17a5ede3f2595a9eaef989c93748ac03 *gd79-05-11d1t03.flac
b83cc24da3ae9165d162be7952056987 *gd79-05-11d1t04.flac
0ed3b217b4a4b8eb27de44fab37926ee *gd79-05-11d1t05.flac
ebd25dd5a718b997d08e6e0f6d9edf46 *gd79-05-11d1t06.flac
5a657f4c6b39676803cdf0dbc6013e8f *gd79-05-11d1t07.flac
05af6f0640b2dbeb5cf37ddabdbfd40b *gd79-05-11d1t08.flac
78b3a2ac77a750fd04ac606a631ca714 *gd79-05-11d1t09.flac
e82860101a4c6ca2f19d41f9a86bc977 *gd79-05-11d1t10.flac
541d00b74d76b459aabbf978759f8e73 *gd79-05-11d2t01.flac
b219ee4f4f2415ed469f64fd4907e059 *gd79-05-11d2t02.flac
6e0b6893b3ad7abd531e1b6c09279b16 *gd79-05-11d2t03.flac
c309bbd6784d20807808d74dc0a82e26 *gd79-05-11d2t04.flac
7818bc47d84fa772cd69bbb1f37467dd *gd79-05-11d2t05.flac
453586e7d8c6b9bf849cbcec6bc75880 *gd79-05-11d2t06.flac
12932e50186f71aea34c38e7e47a649a *gd79-05-11d2t07.flac
b7233d490e0f4e0a7b8fe205953a9160 *gd79-05-11d3t01.flac
8a03603c8ef878174102ef6278a04866 *gd79-05-11d3t02.flac
b961ff5346ce0102914413d06e85833c *gd79-05-11d3t03.flac
5e3e021464a992e8cb05a790e9dab749 *gd79-05-11d3t04.flac
157a7408802a70b7eb85b242f59c078a *gd79-05-11d3t05.flac

Comments
Add Comment
Other Sources (comments)
FOB Sony ECM 280's >... (0) Recording by Keith Gatto... (0)
Date User Comment