Browse Collections Artists Sources   Search Dates

Add Show    List Management    Help


Grateful Dead 08/21/80
Uptown Theater, Chicago, IL
Comments Add Comment    Source Collectors    Add to Collection    Add to Want List    History
Source # 99034 Other Sources
Entered by Matt Vernon
Checksums ffp , flac-md5
Disc Counts 2 / 2
Media Size
Date Circulated
Date Added
05/16/2009
05/16/2009
Source Summary flac16; Recording Info: SBD -> Master Cassette -> Cassette -> Dat -> CD; Transfer Info: CD -> Adobe Audition v1.5 -> Samplitude Professional v10.2.1 -> FLAC; All Transfers and Mastering By Charlie Miller 
  Archive
Source Information - Download Text | Download Zip
Grateful Dead - August 21, 1980
Uptown Theatre - Chicago, IL

Recording Info:
SBD -> Master Cassette -> Cassette -> Dat -> CD

Transfer Info:
CD -> Adobe Audition v1.5 -> Samplitude Professional v10.2.1 -> FLAC
(2 Discs Audio / 2 Discs FLAC)

All Transfers and Mastering By Charlie Miller
[email protected]
May 15, 2009

Patch Info:
Nakamichi 700 -> Master Cassette -> Cassette -> Dat -> CD supplies:
Peggy-O (6:16 - end of track)
Drums (0:00 - 0:33)
The Wheel (1:38 - 1:46)

Notes:
-- This is a remaster of shnid=7913
-- Cleaned up dozens and dozens of flaws
-- Thanks to David Minches for the patch source
-- Thanks to Joe B. Jones for his help with the pitch correction

Set 1:
d1t01 - Cold Rain And Snow ->
d1t02 - New Minglewood Blues
d1t03 - High Time
d1t04 - Mama Tried ->
d1t05 - Mexicali Blues
d1t06 - Peggy-O
d1t07 - It's All Over Now
d1t08 - Easy To Love You
d1t09 - Shakedown Street ->
d1t10 - The Promised Land

Set 2:
d2t01 - Drums ->
d2t02 - Uncle John's Band ->
d2t03 - Truckin' ->
d2t04 - The Other One ->
d2t05 - Drums ->
d2t06 - The Wheel ->
d2t07 - Uncle John's Band ->
d2t08 - Sugar Magnolia

Encore:
d2t09 - Alabama Getaway


SHNTOOL OUTPUT:
    length     expanded size   cdr  WAVE problems filename
     6:09.36       65176316    ---   --   -----   gd80-08-21d1t01.wav
     9:20.56       98915756    ---   --   -----   gd80-08-21d1t02.wav
     7:18.64       77413772    ---   --   -----   gd80-08-21d1t03.wav
     2:29.59       26422412    ---   --   -----   gd80-08-21d1t04.wav
     5:49.19       61608332    ---   --   -----   gd80-08-21d1t05.wav
     7:07.03       75329900    ---   --   -----   gd80-08-21d1t06.wav
     7:55.07       83806508    ---   --   -----   gd80-08-21d1t07.wav
     3:40.26       38869196    ---   --   -----   gd80-08-21d1t08.wav
    11:26.38      121099820    ---   --   -----   gd80-08-21d1t09.wav
     4:09.11       43949516    ---   --   -----   gd80-08-21d1t10.wav
     5:52.67       62250428    ---   --   -----   gd80-08-21d2t01.wav
    13:41.65      144977324    ---   --   -----   gd80-08-21d2t02.wav
     7:25.14       78530972    ---   --   -----   gd80-08-21d2t03.wav
     7:10.46       75960236    ---   --   -----   gd80-08-21d2t04.wav
     7:25.23       78552140    ---   --   -----   gd80-08-21d2t05.wav
     5:44.26       60742796    ---   --   -----   gd80-08-21d2t06.wav
     2:31.48       26749340    ---   --   -----   gd80-08-21d2t07.wav
     8:40.08       91746860    ---   --   -----   gd80-08-21d2t08.wav
     4:53.60       51826364    ---   --   -----   gd80-08-21d2t09.wav
   128:52.01     1363927988 B                     (totals for 19 files)
Show Checksums
ffp
gd80-08-21d1t01.flac:f4b18fe488c9f9b9e78108dd6b4b96e5
gd80-08-21d1t02.flac:19bfb7971e3e34b5d813876ed09b2814
gd80-08-21d1t03.flac:f7b6bb25d74d133e85650f7ae6a31a11
gd80-08-21d1t04.flac:b76ddd9fb3abbc48bca7ab92238f119c
gd80-08-21d1t05.flac:6b0da0750438efeca079f6f07942067c
gd80-08-21d1t06.flac:8dfbb0ed9d3c72889058b10020fe8725
gd80-08-21d1t07.flac:4765940678bc400e1f5bbd91a83cb5fa
gd80-08-21d1t08.flac:aa3b0e037877191f6d473bbce4e71fd9
gd80-08-21d1t09.flac:fe29281a9a927227d5c8df4966ab1307
gd80-08-21d1t10.flac:b4f2cdf8523b654f9a2e12e95af3d0b8
gd80-08-21d2t01.flac:2f25a89eb48ce6ce7b21e549fab569c9
gd80-08-21d2t02.flac:bd5e94c9a15d01aa6c2e48b30355c380
gd80-08-21d2t03.flac:2f3be5c5c98c1eb1e7aa16589c675bc3
gd80-08-21d2t04.flac:1e850eb69772fd7a88d44ac213216b24
gd80-08-21d2t05.flac:eb7dc72978a8b864437ad58e339c3cb9
gd80-08-21d2t06.flac:788adec8227861552e1cc4a76a9d9121
gd80-08-21d2t07.flac:1d69fb397aedeb1f8e3b7b859a775b88
gd80-08-21d2t08.flac:91138543589184a8cb0af0411ab42b83
gd80-08-21d2t09.flac:b3fdec82ff1efbf7b0f8d6932d7c3737
flac-md5
15959e24f6b97cf3190755f4d86b39bd *gd80-08-21d1t01.flac
729d487d042c92771767c616be32aa7e *gd80-08-21d1t02.flac
9fc9a625c64c26d00d899c1d5dcca024 *gd80-08-21d1t03.flac
146b6355237b213b53ee4e4ffc4b582d *gd80-08-21d1t04.flac
ce4b33598ffa4d169471ca034423f207 *gd80-08-21d1t05.flac
eacc919386413e89a6385b216e2d3a2a *gd80-08-21d1t06.flac
b896b35692a0ca72ff27e3b926b611f7 *gd80-08-21d1t07.flac
f1f765f9d36299f70111c09ddb0bf251 *gd80-08-21d1t08.flac
38ed705657c8a82946517308c69a7df2 *gd80-08-21d1t09.flac
a495fe0084eca9bf3f4a0e9c1b2fb2b6 *gd80-08-21d1t10.flac
05390f91a2fc16e8fcf2b08f893161be *gd80-08-21d2t01.flac
388697bd42bd90985ffab161b1ecdb69 *gd80-08-21d2t02.flac
2209c3d9e9ed635005248c9eb6b9e3f7 *gd80-08-21d2t03.flac
f7f0190952d18cfce1fa614b2184fa2d *gd80-08-21d2t04.flac
1884bc15653661f0d9ccacc7959568ad *gd80-08-21d2t05.flac
49470ee3723cc0071d133ad5f48efab0 *gd80-08-21d2t06.flac
7c326a5db60664490fcba5fa3e64704b *gd80-08-21d2t07.flac
d211b7bc85120462cec442565922f6a9 *gd80-08-21d2t08.flac
2fbb9476897a8be8fccfdcf8d7af475a *gd80-08-21d2t09.flac

Comments
Add Comment
Other Sources (comments)
SBD>MC>C>DAT>CD; via Scott... (0) flac24; AUD: 2 AKG... (0) flac16; AUD: 2 AKG... (0) flac16; Recorded By... (0)
Date User Comment