Browse Collections Artists Sources   Search Dates

Add Show    List Management    Help


Grateful Dead 05/12/81
Veterans' Memorial Coliseum, New Haven, CT
Comments Add Comment    Source Collectors    Add to Collection    Add to Want List    History
Source # 99045 Other Sources
Entered by Matt Vernon
Checksums flac-md5 , ffp
Disc Counts 2 / 3
Media Size
Date Circulated
Date Added
05/17/2009
05/17/2009
Source Summary flac16; Matrix by Hunter Seamons using Final Cut Pro (SHN & FLAC>AIFF>Final Cut>WAV>FLAC)  
  Archive
Source Information - Download Text | Download Zip
Grateful Dead
New Haven Coliseum
New Haven, CT
May 12, 1981

Jerry Garcia - Lead Guitar, Vocals
Mickey Hart - Drums
Bill Kreutzmann - Drums
Phil Lesh - Electric Bass, Vocals
Brent Mydland - Keyboards, Vocals
Bob Weir - Rhythm Guitar, Vocals



*Matrix*

------------------------------------------
SBD (shnid=1664):

Source: SBD>Master Cassette>Cassette>DAT>CDR
DAE(EAC) and SHN Encoding by Jeff M. ([email protected])

------------------------------------------
AUD (shnid=99007):

Source: Senn 421>Cassette Master
Lineage: AUD> MC> DAT> CD>EAC>WAV>FLAC Encoding

Original D>CD done by JR Fishman in Fall 2001
DAE(EAC-SafeMode) and FLAC Encoding, Speed Correction and Fade-In/Out removal and Cut smoothing by JR Fishman May 14-15 2009

-------------------------------------------
Thank you to Jeff M. for the SBD transfer,
and to JR Fishman for the AUD transfer

Matrix by Hunter Seamons using Final Cut Pro (SHN & FLAC>AIFF>Final Cut>WAV>FLAC)
May 17, 2009


Set I
-----
d1t01 - Alabama Getaway ->
d1t02 - Greatest Story Ever Told
d1t03 - Peggy-O
d1t04 - Cassidy
d1t05 - It Must Have Been the Roses
d1t06 - Me and My Uncle ->
d1t07 - Big River
d1t08 - Althea
d1t09 - Little Red Rooster
d1t10 - China Cat Sunflower ->
d1t11 - I Know You Rider

Set II
-----
d2t01 - Shakedown Street
d2t02 - Looks Like Rain
d2t03 - Ship of Fools
d2t04 - Estimated Prophet ->
d2t05 - He's Gone* ->
d2t06 - Drums ->
d3t01 - Space ->
d3t02 - The Other One ->
d3t03 - Wharf Rat ->
d3t04 - Sugar Magnolia

Encore:
d3t05 - Don't Ease Me In


*Dedicated to Bob Marley


Notes:

1) Some sizable cuts in the SBD and AUD during Drums > Space, but the show is now complete.

2) Great show.


    length     expanded size    cdr  WAVE problems  fmt   ratio  filename
     5:12.38       55126220 B   ---   --   ---xx  gd81-05-12d1t01.flac
     4:16.52       45280748 B   ---   --   ---xx  gd81-05-12d1t02.flac
     6:42.07       70929308 B   ---   --   ---xx  gd81-05-12d1t03.flac
     5:14.06       55403756 B   ---   --   ---xx  gd81-05-12d1t04.flac
     7:05.05       74981804 B   ---   --   ---xx  gd81-05-12d1t05.flac
     2:54.10       30717164 B   ---   --   ---xx  gd81-05-12d1t06.flac
     5:44.41       60778076 B   ---   --   ---xx  gd81-05-12d1t07.flac
     8:18.00       87847244 B   ---   --   ---xx  gd81-05-12d1t08.flac
     9:15.24       97958492 B   ---   --   ---xx  gd81-05-12d1t09.flac
     5:49.71       61730636 B   ---   --   ---xx  gd81-05-12d1t10.flac
     5:58.20       63198284 B   ---   --   ---xx  gd81-05-12d1t11.flac
    12:45.70      135110684 B   ---   --   ---xx  gd81-05-12d2t01.flac
     9:16.24       98134892 B   ---   --   ---xx  gd81-05-12d2t02.flac
     7:43.00       81673244 B   ---   --   ---xx  gd81-05-12d2t03.flac
    11:27.46      121295036 B   ---   --   ---xx  gd81-05-12d2t04.flac
    17:57.41      190079276 B   ---   --   ---xx  gd81-05-12d2t05.flac
    10:47.04      114140252 B   ---   --   ---xx  gd81-05-12d2t06.flac
     4:17.66       45490076 B   ---   --   ---xx  gd81-05-12d3t01.flac
     6:35.18       69720380 B   ---   --   ---xx  gd81-05-12d3t02.flac
     9:45.01      103196396 B   ---   --   ---xx  gd81-05-12d3t03.flac
     8:18.67       88004828 B   ---   --   ---xx  gd81-05-12d3t04.flac
     3:21.31       35529356 B   ---   --   ---xx  gd81-05-12d3t05.flac
   168:46.42     1786326152 B                            0.5590  (22 files)
Show Checksums
flac-md5
801e8c3d37d6a1c8b836b1ad7517aa1c *gd81-05-12d1t01.flac
b6c5cc9431878772995c425d3b1b3194 *gd81-05-12d1t02.flac
f5a1043225a47f30108741badc10c0b2 *gd81-05-12d1t03.flac
5a69771174f626fc425629b0e0b80bdd *gd81-05-12d1t04.flac
83abf52bfe38031aad53b9230e559ac1 *gd81-05-12d1t05.flac
c4d08a04d6237942ac64457fe2e897b4 *gd81-05-12d1t06.flac
c39121821ab15fb4e7e7469438b0db10 *gd81-05-12d1t07.flac
f7f88ce30e4a073166d9669495c90649 *gd81-05-12d1t08.flac
e46e8fa79408e112c7fc850d30bb055a *gd81-05-12d1t09.flac
eebad4d39da13b754863e2c44b496eb3 *gd81-05-12d1t10.flac
860be5eaafc21dd1be53ca7c81c8f1b7 *gd81-05-12d1t11.flac
290e3c6cc2a9d43c25e6c485a47f4bb8 *gd81-05-12d2t01.flac
8dd9eaab6017e9c5d76f24813bf0920c *gd81-05-12d2t02.flac
ae61d4fcacf2567e2901c417eb3e5315 *gd81-05-12d2t03.flac
34561d08f61c445c82c535a7b2d8bced *gd81-05-12d2t04.flac
bfdea0d0f55eda76f1c861726af8d197 *gd81-05-12d2t05.flac
06d5997350959f332aeacd5ae7ef2184 *gd81-05-12d2t06.flac
d24360fe5aa85c1254dc94a7b99cb556 *gd81-05-12d3t01.flac
aa2174dc7c3c6b619473a19e106ac8c0 *gd81-05-12d3t02.flac
1839b8c82df8fbd605bf2c040df99050 *gd81-05-12d3t03.flac
a9ac4eb225fa6b60d57dd037937dc817 *gd81-05-12d3t04.flac
c888b9596805dfd859db1a004f0c07c5 *gd81-05-12d3t05.flac
ffp
gd81-05-12d1t01.flac:ac22fb171f1c043894699ed4b19b5b3e
gd81-05-12d1t02.flac:3a3287a98beb1b33412bdd2b775249e9
gd81-05-12d1t03.flac:805138f7e77a02cfbe9450a70282321f
gd81-05-12d1t04.flac:64f602b17626d708c0cd236e4e9577b0
gd81-05-12d1t05.flac:55519b2d4bd31e69948a0ee571f6cb1b
gd81-05-12d1t06.flac:698f7b1f6be3ddb7c90fc6ebc416947d
gd81-05-12d1t07.flac:930b1c645489870e8e86c03728a75fd7
gd81-05-12d1t08.flac:70f343c2ece7bf35ce02a957bcae6621
gd81-05-12d1t09.flac:50045bd6edf3272fdb1d888abce2dc60
gd81-05-12d1t10.flac:3ce50e1eb32fe866058561c8285953dc
gd81-05-12d1t11.flac:caca42e65a1fdefec6ca576a2475c6fe
gd81-05-12d2t01.flac:65684a2e478cf9a05abd62249ef37c3a
gd81-05-12d2t02.flac:e0825c6e1ad2998eae6d56f1e1dfe7ad
gd81-05-12d2t03.flac:fca6ae7dc03ae5c26882833fbf913bf0
gd81-05-12d2t04.flac:963d00bfb73403017daa3d946217eaaa
gd81-05-12d2t05.flac:80a342c04c68161d7b1c5974ac5efd6b
gd81-05-12d2t06.flac:e7dcf1bc5683456e76427e7ccb94978d
gd81-05-12d3t01.flac:29104a949c5848a9fffc239942733cab
gd81-05-12d3t02.flac:d059d288fa725e8dee3dda7cd40adb55
gd81-05-12d3t03.flac:32e6437eaa386e1f5105faf2632d2b29
gd81-05-12d3t04.flac:5514b335a00e19e74a21841c35b04cd2
gd81-05-12d3t05.flac:d96d7b33b70dddd6402512b588da0353

Comments
Add Comment
Other Sources (comments)
SBD> Master Cassette>... (9) essentially same as (3) flac16; Set 1... (0) flac24; AUD: 3x... (1) flac16; AUD: 3x... (1) flac16; Updated... (1) flac16; Recording... (0) flac16; source: aud... (0) flac24; source: aud... (0) flac16; Source Info:... (0) flac24; Source Info:... (0)
Date User Comment
12/20/2018 EdPontiac Thank you for sharing!