Browse Collections Artists Sources   Search Dates

Add Show    List Management    Help


Grateful Dead 12/28/83
San Francisco Civic Auditorium, San Francisco, CA
Comments Add Comment    Source Collectors    Add to Collection    Add to Want List    History
Source # 99126 Other Sources
Entered by Matt Vernon
Checksums ffp , flac-md5
Disc Counts 0 / 0
Media Size
Date Circulated
Date Added
05/25/2009
05/25/2009
Source Summary flac24; FOB AUD: Sennheiser MD-421's > patched thru one deck (Nak 550) > Marantz PMD-340 > Sony UCX-S 90's, with Dolby. Mics on seven-foot stand, aprx 25 feet from the stage in the center, mics angled up. Transfer: MAC > Nakamichi DR-8 (Dolby) > Edirol FA-66 > Wavelab > CD-Wave > TLH > FLAC 2496. Taped and transferred by Andrew F. 05/2009  
  Archive
Source Information - Download Text | Download Zip
GRATEFUL DEAD
Civic Auditorium
San Francisco CA
12-28-1983

24bit/96kHz file-set

s1t01 Feel Like a Stranger
s1t02 Dire Wolf
s1t03 Mama Tried >
s1t04 Mexicali Blues
s1t05 Loser
s1t06 Minglewood Blues
s1t07 Birdsong

s2t01 China Cat Sunflower >
s2t02 I Know You Rider
s2t03 crowd & tuning
s2t04 Playin' in the Band >
s2t05 Drums >
s2t06 Space >
s2t07 The Wheel > PITB tease >
s2t08 The Other One >
s2t09 Stella Blue >
s2t10 Around & Around >
s2t11 Johnny B Goode
s2t12 Encore: It's All Over Now Baby Blue

FOB AUD: Sennheiser MD-421's > patched thru one deck (Nak 550) > Marantz
PMD-340 > Sony UCX-S 90's, with Dolby. Mics on seven-foot stand, aprx 25
feet from the stage in the center, mics angled up.

Transfer: MAC > Nakamichi DR-8 (Dolby) > Edirol FA-66 > Wavelab > CD-Wave >
TLH > FLAC 2496. Taped and transferred by Andrew F. 05/2009

Source notes: This is the same recording as ID-20361. It's a fresh transfer
with the following improvements... The tape spools were re-shelled into
Maxell cases for smoother and more consistent playback. Transferred in 24/96.
Pitch corrected. Drop-outs and levels repaired. Tape pauses cleaned-up with
crossfades. Patches added to make show complete, from; ID-79351, in Birdsong
11:28 > 11:34, PITB 0:00 > 0:02, Space 0:32 > 0:36, Space 0:57 > 1:05, and
ID-10312, in Drums 8:34 > 8:47. Thanks to cbass for help with the patches.

    length     expanded size    cdr  WAVE problems  fmt   ratio  filename
     8:17.840     286755884 B   cxx   --   ---xx   flac  0.6019  gd1983-12-28s1t01.flac
     3:34.120     123333164 B   cxx   --   ---xx   flac  0.6045  gd1983-12-28s1t02.flac
     2:44.373      94679084 B   cxx   --   ---xx   flac  0.5989  gd1983-12-28s1t03.flac
     5:16.960     182569004 B   cxx   --   ---xx   flac  0.6025  gd1983-12-28s1t04.flac
     7:04.120     244293164 B   cxx   --   ---xx   flac  0.5923  gd1983-12-28s1t05.flac
     7:54.173     273123884 B   cxx   --   ---xx   flac  0.6044  gd1983-12-28s1t06.flac
    12:38.527     436911842 B   cxx   --   ---xx   flac  0.5931  gd1983-12-28s1t07.flac
     8:52.507     306723884 B   cxx   --   ---xx   flac  0.6115  gd1983-12-28s2t01.flac
     5:20.707     184727084 B   cxx   --   ---xx   flac  0.6181  gd1983-12-28s2t02.flac
     1:32.484      53270948 B   cxx   --   ---xx   flac  0.5486  gd1983-12-28s2t03.flac
    16:53.933     584025644 B   cxx   --   ---xx   flac  0.6011  gd1983-12-28s2t04.flac
     9:22.867     324211244 B   cxx   --   ---xx   flac  0.5781  gd1983-12-28s2t05.flac
     7:23.207     255287228 B   cxx   --   ---xx   flac  0.5672  gd1983-12-28s2t06.flac
     8:04.640     279152684 B   cxx   --   ---xx   flac  0.5849  gd1983-12-28s2t07.flac
     9:30.627     328681004 B   cxx   --   ---xx   flac  0.5947  gd1983-12-28s2t08.flac
     8:57.120     309381164 B   cxx   --   ---xx   flac  0.5713  gd1983-12-28s2t09.flac
     3:45.707     130007084 B   cxx   --   ---xx   flac  0.5981  gd1983-12-28s2t10.flac
     3:46.533     130483244 B   cxx   --   ---xx   flac  0.6071  gd1983-12-28s2t11.flac
     7:04.067     244262468 B   cxx   --   ---xx   flac  0.5889  gd1983-12-28s2t12.flac
   138:04.512    4771879706 B                            0.5938  (19 files)

No errors occured.
Show Checksums
ffp
gd1983-12-28s1t01.flac:cfe36a382f9b888e28ff643f2b3d562c
gd1983-12-28s1t02.flac:bc8841c10295a94267273011c506962c
gd1983-12-28s1t03.flac:ba470f8353214ecfccb69057ae874745
gd1983-12-28s1t04.flac:223153f022d710e68cf50a94854b2888
gd1983-12-28s1t05.flac:f61ea87661a43f4d3a15eba41b8b2ef0
gd1983-12-28s1t06.flac:de2e115c208d325c2c9d99f8b643dd5b
gd1983-12-28s1t07.flac:a8b770de9fae119e4d5222db17d241c0
gd1983-12-28s2t01.flac:ce7acf60ac657f1c425e41ccbb31a0f2
gd1983-12-28s2t02.flac:447affea3f6c39125e637dad1d0a7494
gd1983-12-28s2t03.flac:65d96725ad7fbe7c537d8c2cdf35674a
gd1983-12-28s2t04.flac:fcbeb93d2e4fbab25fc9890f549e1adf
gd1983-12-28s2t05.flac:b22a6145c67901c89fa5a0958023ed7d
gd1983-12-28s2t06.flac:5bcf00e4faa462244db804dbbda2662a
gd1983-12-28s2t07.flac:bbfff8b3f59bc57508931ba11d0ac5b5
gd1983-12-28s2t08.flac:de461dc65b8eacbf19d7ef8e2bcb80e7
gd1983-12-28s2t09.flac:396621ac5b77a063dbeb8e67dfdb49f3
gd1983-12-28s2t10.flac:394a56a0038416f4140af169a20cf923
gd1983-12-28s2t11.flac:8c0ac68886213313ef46e563b1db0888
gd1983-12-28s2t12.flac:66af90fa235f9db0218543c1995699a2
flac-md5
430c07d97771d1d7d410a0ca8fa3256d *gd1983-12-28s1t01.flac
69c93dca144099e77fa449420b91fdaa *gd1983-12-28s1t02.flac
b1885c56caf04cb085196ea3431fa282 *gd1983-12-28s1t03.flac
34479c882fcd9418e156d52b3d8c6317 *gd1983-12-28s1t04.flac
b0154c4ea36d8d6ab87736f596c7001c *gd1983-12-28s1t05.flac
dabf8aee7649a4f0b26cf2f26157c717 *gd1983-12-28s1t06.flac
ba71828985f02a359a018338f2ee51ef *gd1983-12-28s1t07.flac
6aa432e9caeb710d69e8b37db44f19f6 *gd1983-12-28s2t01.flac
7feeaafda86764413c2c4a61c00e6d6a *gd1983-12-28s2t02.flac
14efe2da11e044b6dabd84546a14968f *gd1983-12-28s2t03.flac
87d9b4b7fec669343304f9fcd1d2916c *gd1983-12-28s2t04.flac
39285af0bd3f0793aaab8d22569716fe *gd1983-12-28s2t05.flac
87f47c5c08c1a4eb847bb28b4110b291 *gd1983-12-28s2t06.flac
2a828bff4fb9394a76c90e2af69e0d01 *gd1983-12-28s2t07.flac
dc7923ca0f821133981c18ff5b1c5ef9 *gd1983-12-28s2t08.flac
001eae2d97e6ee2e338313962c9ebdd8 *gd1983-12-28s2t09.flac
c0659e5d69fb5362f578ee2a2a63ac81 *gd1983-12-28s2t10.flac
1951bb53b14bf9b5c3934b58aedb9488 *gd1983-12-28s2t11.flac
5440a340668182b2165874f5a81e136c *gd1983-12-28s2t12.flac

Comments
Add Comment
Other Sources (comments)
SBD>MC>C>DAT>CDR; via Paul... (0) Source: FOB AUD -- Senn.... (1) flac16; Recording... (0) flac16; Source:... (0) flac16; Recording... (0) flac16; FOB AUD:... (0) flac16:Recorded by... (0) flac16; Matrix 3... (0) flac16; Master... (0) flac24; Master... (0) flac16; source: aud... (0) flac24; source: aud... (0)
Date User Comment