Browse Collections Artists Sources   Search Dates

Add Show    List Management    Help


Grateful Dead 12/28/83
San Francisco Civic Auditorium, San Francisco, CA
Comments Add Comment    Source Collectors    Add to Collection    Add to Want List    History
Source # 99127 Other Sources
Entered by Matt Vernon
Checksums ffp , flac-md5
Disc Counts 2 / 2
Media Size
Date Circulated
Date Added
05/25/2009
05/25/2009
Source Summary flac16; FOB AUD: Sennheiser MD-421's > patched thru one deck (Nak 550) > Marantz PMD-340 > Sony UCX-S 90's, with Dolby. Mics on seven-foot stand, aprx 25 feet from the stage in the center, mics angled up. Transfer: MAC > Nakamichi DR-8 (Dolby) > Edirol FA-66 > Wavelab > CD-Wave > R8Brain > TLH > FLAC 1644. Taped and transferred by Andrew F. 05/2009 
  Archive
Source Information - Download Text | Download Zip
GRATEFUL DEAD
Civic Auditorium
San Francisco CA
12-28-1983

Disc One (61:43)

01 Feel Like a Stranger
02 Dire Wolf
03 Mama Tried >
04 Mexicali Blues
05 Loser
06 Minglewood Blues
07 Birdsong
-- set break --
08 China Cat Sunflower >
09 I Know You Rider

Disc Two (76:21)

01 crowd & tuning
02 Playin' in the Band >
03 Drums >
04 Space >
05 The Wheel > PITB tease >
06 The Other One >
07 Stella Blue >
08 Around & Around >
09 Johnny B Goode
-- encore --
10 It's All Over Now Baby Blue

FOB AUD: Sennheiser MD-421's > patched thru one deck (Nak 550) > Marantz
PMD-340 > Sony UCX-S 90's, with Dolby. Mics on seven-foot stand, aprx 25
feet from the stage in the center, mics angled up.

Transfer: MAC > Nakamichi DR-8 (Dolby) > Edirol FA-66 > Wavelab > CD-Wave >
R8Brain > TLH > FLAC 1644. Taped and transferred by Andrew F. 05/2009

Source notes: This is the same recording as ID-20361. It's a fresh transfer
with the following improvements... The tape spools were re-shelled into
Maxell cases for smoother and more consistent playback. Transferred in 24/96.
Pitch corrected. Drop-outs and levels repaired. Tape pauses cleaned-up with
crossfades. Patches added to make show complete, from; ID-79351, in Birdsong
11:28 > 11:34, PITB 0:00 > 0:02, Space 0:32 > 0:36, Space 0:57 > 1:05, and
ID-10312, in Drums 8:34 > 8:47. Thanks to cbass for help with the patches.

    length     expanded size    cdr  WAVE problems  fmt   ratio  filename
     8:17.63       87819020 B   ---   --   ---xx   flac  0.5526  gd1983-12-28d1t01.flac
     3:34.09       37770812 B   ---   --   ---xx   flac  0.5513  gd1983-12-28d1t02.flac
     2:44.28       28995500 B   ---   --   ---xx   flac  0.5397  gd1983-12-28d1t03.flac
     5:16.72       55911788 B   ---   --   ---xx   flac  0.5494  gd1983-12-28d1t04.flac
     7:04.09       74814812 B   ---   --   ---xx   flac  0.5220  gd1983-12-28d1t05.flac
     7:54.13       83644220 B   ---   --   ---xx   flac  0.5528  gd1983-12-28d1t06.flac
    12:38.39      133802972 B   ---   --   ---xx   flac  0.5298  gd1983-12-28d1t07.flac
     8:52.38       93934220 B   ---   --   ---xx   flac  0.5777  gd1983-12-28d1t08.flac
     5:20.53       56572700 B   ---   --   ---xx   flac  0.5923  gd1983-12-28d1t09.flac
     1:32.36       16313516 B   ---   --   ---xx   flac  0.4147  gd1983-12-28d2t01.flac
    16:53.70      178857884 B   ---   --   ---xx   flac  0.5545  gd1983-12-28d2t02.flac
     9:22.65       99289724 B   ---   --   ---xx   flac  0.5010  gd1983-12-28d2t03.flac
     7:23.16       78182876 B   ---   --   ---xx   flac  0.4508  gd1983-12-28d2t04.flac
     8:04.48       85490540 B   ---   --   ---xx   flac  0.5054  gd1983-12-28d2t05.flac
     9:30.47      100658588 B   ---   --   ---xx   flac  0.5350  gd1983-12-28d2t06.flac
     8:57.09       94748012 B   ---   --   ---xx   flac  0.4742  gd1983-12-28d2t07.flac
     3:45.53       39814700 B   ---   --   ---xx   flac  0.5432  gd1983-12-28d2t08.flac
     3:46.40       39960524 B   ---   --   ---xx   flac  0.5647  gd1983-12-28d2t09.flac
     7:04.06       74807756 B   ---   --   ---xx   flac  0.5258  gd1983-12-28d2t10.flac
   138:04.39     1461390164 B                            0.5311  (19 files)

No errors occured.
Show Checksums
ffp
gd1983-12-28d1t01.flac:4fc05bd3ab400851098c99d9b85f25a6
gd1983-12-28d1t02.flac:894edbd7d86d3047f6510b5012631926
gd1983-12-28d1t03.flac:cc1a20190bacb2c50c133d7adf54d4cb
gd1983-12-28d1t04.flac:9a285da8302fd2f1c1a4e165a897c9ea
gd1983-12-28d1t05.flac:45c38092c92d637c3f73be1218250600
gd1983-12-28d1t06.flac:6c32bb0d5cf409af25b38102b5943201
gd1983-12-28d1t07.flac:dd1602c675ea1f2f57af752311973f6e
gd1983-12-28d1t08.flac:56c31ce8da53f702c130a0726181e2ae
gd1983-12-28d1t09.flac:9bba787deac148be9abf196ace0f21ee
gd1983-12-28d2t01.flac:5fb6d1dc7fbf3fce5a2aa154d13bb03e
gd1983-12-28d2t02.flac:875e07f2e5790bb4802f324dd2eabee1
gd1983-12-28d2t03.flac:677a49fb8c7d98132ced5e3775878e45
gd1983-12-28d2t04.flac:ccf647ee9715c4993dc8692a62fc7ddd
gd1983-12-28d2t05.flac:e53c8abced6d8f492f537c958e722c6f
gd1983-12-28d2t06.flac:1d5e6e9724605bfa61ce6a731254120f
gd1983-12-28d2t07.flac:63c9a637cd5cd2781d7763b9427f2290
gd1983-12-28d2t08.flac:5936ae83aa82d86a7e23ca1b1d2babe6
gd1983-12-28d2t09.flac:412ec804048c28a858b9c0cb07ddcc83
gd1983-12-28d2t10.flac:daf5168c65e82f3e0b4b83d1d803767e
flac-md5
b3269dac0511ad9bae41da9f8160024e *gd1983-12-28d1t01.flac
047fb38410eb281b7c5fc1e6dac8cdf0 *gd1983-12-28d1t02.flac
35ae3de9138ee0cb49ab66f049269565 *gd1983-12-28d1t03.flac
e780be45b8315c6f79845d6fa19cd9e0 *gd1983-12-28d1t04.flac
8af43c97df320fe36e5aca60136dd3df *gd1983-12-28d1t05.flac
9100961f45970c04b66f0956bb16d95c *gd1983-12-28d1t06.flac
d6dddf767c775e967724d3da5e9268e4 *gd1983-12-28d1t07.flac
eefea2e28681cbf2b847f6df18fa3442 *gd1983-12-28d1t08.flac
43828f08c785a20212713850662a848e *gd1983-12-28d1t09.flac
07eaf3ac3d81fe9d68136822ebf87797 *gd1983-12-28d2t01.flac
dfdcb68318a4b7dca760f8730c52d152 *gd1983-12-28d2t02.flac
96aeac1784c6d5d0e1935e9719d272b0 *gd1983-12-28d2t03.flac
aae57ee1f4295b3d4149504e08771d61 *gd1983-12-28d2t04.flac
741a714d4f8282f1add74d320e341275 *gd1983-12-28d2t05.flac
afb09116ff558641c6ccfb8cab775af3 *gd1983-12-28d2t06.flac
39328faf92a89ef6b1970beeed732212 *gd1983-12-28d2t07.flac
f96b505e5072cb9c5e04047500f8e23f *gd1983-12-28d2t08.flac
25569d7e44a99237d4affe877871476d *gd1983-12-28d2t09.flac
5ceae50d62f8108efe88ce1b0c3f2f22 *gd1983-12-28d2t10.flac

Comments
Add Comment
Other Sources (comments)
SBD>MC>C>DAT>CDR; via Paul... (0) Source: FOB AUD -- Senn.... (1) flac16; Recording... (0) flac16; Source:... (0) flac16; Recording... (0) flac24; FOB AUD:... (0) flac16:Recorded by... (0) flac16; Matrix 3... (0) flac16; Master... (0) flac24; Master... (0) flac16; source: aud... (0) flac24; source: aud... (0)
Date User Comment